Příspěvek 13 črc 2018, 13:35

300: Vzestup říše / 300: Rise of an Empire (2014)

300: Vzestup říše / 300: Rise of an Empire (2014)
Video/Zdroj: BluRay 1080p
Audio: CZ 5.1ch AC-3, EN 5.1ch DTS
Subtitles: CZ, EN

Obrázek

  Kód:   Vybrat vše
http://www.csfd.cz/film/255445-300-vzestup-rise/


  Kód:   Vybrat vše
Format                                   : Matroska
Format version                           : Version 2
File size                                : 15.6 GiB
Duration                                 : 1h 42mn
Overall bit rate                         : 21.8 Mbps

Video
Format                                   : AVC
Format profile                           : High@L4.1
Duration                                 : 1h 42mn
Bit rate                                 : 19.9 Mbps
Width                                    : 1 920 pixels
Height                                   : 800 pixels
Display aspect ratio                     : 2.40:1
Frame rate mode                          : Constant
Frame rate                               : 23.976 fps
Color space                              : YUV
Chroma subsampling                       : 4:2:0
Bit depth                                : 8 bits
Scan type                                : Progressive
Bits/(Pixel*Frame)                       : 0.540
Stream size                              : 13.9 GiB (89%)

Audio #1
Format                                   : AC-3
Duration                                 : 1h 42mn
Bit rate mode                            : Constant
Bit rate                                 : 448 Kbps
Channel(s)                               : 6 channels
Channel positions                        : Front: L C R, Side: L R, LFE
Sampling rate                            : 48.0 KHz
Bit depth                                : 16 bits
Compression mode                         : Lossy
Stream size                              : 329 MiB (2%)
Language                                 : Czech

Audio #2
Format                                   : DTS
Duration                                 : 1h 42mn
Bit rate mode                            : Constant
Bit rate                                 : 1 509 Kbps
Channel(s)                               : 6 channels
Channel positions                        : Front: L C R, Side: L R, LFE
Sampling rate                            : 48.0 KHz
Bit depth                                : 24 bits
Compression mode                         : Lossy
Stream size                              : 1.08 GiB (7%)
Language                                 : English

Text #1
Format                                   : UTF-8
Language                                 : Czech

Text #2
Format                                   : UTF-8
Language                                 : English


Fastshare
  Kód:   Vybrat vše
http://fastshare.cz/10051882/3roae.part01.rar
http://fastshare.cz/10051886/3roae.part02.rar
http://fastshare.cz/10051888/3roae.part03.rar
http://fastshare.cz/10051895/3roae.part04.rar
http://fastshare.cz/10051900/3roae.part05.rar
http://fastshare.cz/10051903/3roae.part06.rar
http://fastshare.cz/10051906/3roae.part07.rar
http://fastshare.cz/10051908/3roae.part08.rar
http://fastshare.cz/10051909/3roae.part09.rar


Balené bez kompresie. Bez hesla. Pridaný záznam pre opravu dát 5%.