Příspěvek 08 pro 2019, 19:10

Ad Astra/ Ad Astra 2019

Ad Astra (2019)+CZ tit.

Release : Ad Astra 1080p 5.1EN, CZ titulky 2019(jrs).h.mkv

Obrázek

Obrázek

  Kód:   Vybrat vše
https://www.csfd.cz/film/528090-ad-astra/komentare/


Obrázek
Spoiler:
  Kód:   Vybrat vše
General

Complete name               : Ad Astra 1080p 5.1EN, CZ titulky 2019(jrs).h.mkv
Format                      : Matroska
Format version              : Version 4 / Version 2
File size                   : 5.99 GiB
Duration                    : 2h 5mn
Overall bit rate            : 6 853 Kbps
Encoded date                : UTC 2019-12-05 09:04:38
Writing application         : mkvmerge v40.0.0 ('Old Town Road + Pony') 64-bit
Writing library             : libebml v1.3.9 + libmatroska v1.5.2

Video
ID                          : 1
Format                      : AVC
Format/Info                 : Advanced Video Codec
Format profile              : High@L4
Format settings, CABAC      : Yes
Format settings, ReFrames   : 2 frames
Codec ID                    : V_MPEG4/ISO/AVC
Duration                    : 2h 5mn
Bit rate                    : 6 467 Kbps
Width                       : 1 920 pixels
Height                      : 1 080 pixels
Display aspect ratio        : 16:9
Frame rate mode             : Constant
Frame rate                  : 23.976 (24000/1001) fps
Color space                 : YUV
Chroma subsampling          : 4:2:0
Bit depth                   : 8 bits
Scan type                   : Progressive
Bits/(Pixel*Frame)          : 0.130
Stream size                 : 5.65 GiB (94%)
Writing library             : x264 core 155 r2901 7d0ff22
Language                    : English
Default                     : Yes
Forced                      : Yes
Color range                 : Limited
Color primaries             : BT.709
Transfer characteristics    : BT.709
Matrix coefficients         : BT.709

Audio
ID                          : 2
Format                      : AC-3
Format/Info                 : Audio Coding 3
Mode extension              : CM (complete main)
Format settings, Endianness : Big
Codec ID                    : A_AC3
Duration                    : 2h 5mn
Bit rate mode               : Constant
Bit rate                    : 384 Kbps
Channel(s)                  : 6 channels
Channel positions           : Front: L C R, Side: L R, LFE
Sampling rate               : 48.0 KHz
Frame rate                  : 31.250 fps (1536 spf)
Compression mode            : Lossy
Stream size                 : 344 MiB (6%)
Language                    : English
Default                     : Yes
Forced                      : Yes

Text #1
ID                          : 3
Format                      : UTF-8
Codec ID                    : S_TEXT/UTF8
Codec ID/Info               : UTF-8 Plain Text
Duration                    : 2h 2mn
Bit rate                    : 92 bps
Count of elements           : 1074
Stream size                 : 83.0 KiB (0%)
Language                    : Czech
Default                     : Yes
Forced                      : Yes

Text #2
ID                          : 4
Format                      : UTF-8
Codec ID                    : S_TEXT/UTF8
Codec ID/Info               : UTF-8 Plain Text
Duration                    : 1h 50mn
Bit rate                    : 50 bps
Count of elements           : 1260
Stream size                 : 41.2 KiB (0%)
Language                    : English
Default                     : No
Forced                      : No


Obrázek

  Kód:   Vybrat vše
https://ulozto.sk/file/ac9bWn78IcyR/ad-astra-1080p-5-1en-cz-titulky-2019-jrs-mkv


Obrázek