Příspěvek 23 pro 2017, 01:18

Anděl Páně (2005)

andel.pane.hdtv.1080i.rambo.cz.mkv




Cover:

Obrázek

Info:

Země: ČR
Rok: 2005
Délka: 90 min
Jazyk: český (5.1)
Titulky: žádné
Zdroj: DVB HDTV (1080i)

Csfd:

  Kód:   Vybrat vše
http://www.csfd.cz/film/215414-andel-pane/


Info:
General
Format: Matroska
File size: 6.61 GiB
Duration: 1h 31mn
Overall bit rate: 10.3 Mbps
Writing application: Lavf51.12.1
Writing library: Lavf51.12.1

Video
ID: 1
Format: AVC
Format/Info: Advanced Video Codec
Format profile: Baseline@L4.0
Format settings, CABAC: No
Format settings, ReFrames: 1 frame
Format settings, GOP: M=1, N=12
Codec ID: V_MPEG4/ISO/AVC
Duration: 1h 31mn
Bit rate: 9 695 Kbps
Width: 1 920 pixels
Height: 1 080 pixels
Display aspect ratio: 16:9
Frame rate: 25.000 fps
Color space: YUV
Chroma subsampling: 4:2:0
Bit depth: 8 bits
Scan type: Progressive
Bits/(Pixel*Frame): 0.187
Stream size: 6.19 GiB (94%)
Language: English

Audio
ID: 2
Format: AC-3
Format/Info: Audio Coding 3
Mode extension: CM (complete main)
Codec ID: A_AC3
Duration: 1h 31mn
Bit rate mode: Constant
Bit rate: 448 Kbps
Channel(s): 6 channels
Channel positions: Front: L C R, Side: L R, LFE
Sampling rate: 48.0 KHz
Bit depth: 16 bits
Compression mode: Lossy
Stream size: 293 MiB (4%)
Language: English / Czech




Download:
  Kód:   Vybrat vše
http://fastshare.cz/8381164/andel.pane.hdtv.1080i.rambo.cz.mkv





Naposledy upravil Stanley dne 23 pro 2017, 06:58, celkově upraveno 1
Důvod: Oprava názvu tématu