Příspěvek 22 led 2016, 20:22

Anissa Kate - Double Anal Video [UltraHD]

Anissa Kate (Double Anal Video (H264) 4096x2160)Ulta HD 4K

  Kód:   Vybrat vše
http://www.imgbabes.com/o5l8ezk3i5x4/383542.jpg.html


  Kód:   Vybrat vše
http://fastshare.cz/5531529/addanissakarlomarcus-4k.mp4


  Kód:   Vybrat vše
http://www.imgbabes.com/s4k7illttfgs/858617.jpg.html


  Kód:   Vybrat vše
General

Format                           : MPEG-4
Format profile                   : Base Media / Version 2
Codec ID                         : mp42
File size                        : 5.33 GiB
Duration                         : 31mn 12s
Overall bit rate                 : 24.5 Mbps
Encoded date                     : UTC 2015-12-23 19:07:56
Tagged date                      : UTC 2015-12-23 19:13:46
©TIM                             : 00:00:00:00
©TSC                             : 24000
©TSZ                             : 1001

Video
ID                               : 1
Format                           : AVC
Format/Info                      : Advanced Video Codec
Format profile                   : High@L5.1
Format settings, CABAC           : Yes
Format settings, ReFrames        : 3 frames
Codec ID                         : avc1
Codec ID/Info                    : Advanced Video Coding
Duration                         : 31mn 12s
Bit rate mode                    : Variable
Bit rate                         : 24.1 Mbps
Maximum bit rate                 : 100.0 Mbps
Width                            : 4 096 pixels
Height                           : 2 160 pixels
Display aspect ratio             : 1.896
Frame rate mode                  : Constant
Frame rate                       : 23.976 fps
Standard                         : NTSC
Color space                      : YUV
Chroma subsampling               : 4:2:0
Bit depth                        : 8 bits
Scan type                        : Progressive
Bits/(Pixel*Frame)               : 0.114
Stream size                      : 5.26 GiB (99%)
Language                         : English
Encoded date                     : UTC 2015-12-23 19:07:56
Tagged date                      : UTC 2015-12-23 19:07:56
Color primaries                  : BT.709-5, BT.1361, IEC 61966-2-4, SMPTE RP177
Transfer characteristics         : BT.709-5, BT.1361
Matrix coefficients              : BT.709-5, BT.1361, IEC 61966-2-4 709, SMPTE RP177

Audio
ID                               : 2
Format                           : AAC
Format/Info                      : Advanced Audio Codec
Format profile                   : LC
Codec ID                         : 40
Duration                         : 31mn 12s
Bit rate mode                    : Variable
Bit rate                         : 317 Kbps
Maximum bit rate                 : 371 Kbps
Channel(s)                       : 2 channels
Channel positions                : Front: L R
Sampling rate                    : 48.0 KHz
Compression mode                 : Lossy
Stream size                      : 70.8 MiB (1%)
Language                         : English
Encoded date                     : UTC 2015-12-23 19:07:57
Tagged date                      : UTC 2015-12-23 19:07:57