Loading...
Oznam

:welcome:



warpark-Forum


Anthropoid / Anthropoid (2016)

Moderátor: drobec

<<

browing3006


Profesionál


Uploader

ID Užívateľa: 21287

Registrován: 26 kvě 2015, 02:41



Příspěvky: 988
(Zobraziť: Všetko /Témy)

Poďakoval som: 0 krát

Poďakovali my: 3 krát



Peňazí na ruke: 9,906.80



Karma: 0

Příspěvek 30 kvě 2017, 23:35

Anthropoid / Anthropoid (2016)

Anthropoid (2016)

CSFD:

  Kód:   Vybrat vše
https://www.csfd.cz/film/405971-anthropoid/
http://www.imdb.com/title/tt4190530/



Obrázek

Anthropoid.2016.720p.BluRay.x264.CZ
Anthropoid.2016.1080p.BluRay.x264.CZ


Anthropoid.2016.720p.BluRay.x264.CZ
Jazyk: Czech 2.0 224 Kbps , English 5.1 640 Kbps
Subtitles:Czech , Slovak , English

iNFO

  Kód:   Vybrat vše
Formát                                   : Matroska
Format_Version                           : Version 4 / Version 2
Velikost souboru                         : 4,92 GiB
Duration/String                          : 2h 0mn
Celkový BitRate                          : 5 823 Kbps
Encoded date                             : UTC 2017-05-28 21:58:52
Použitý software                         : mkvmerge v6.2.0 ('Promised Land') built on Apr 28 2013 12:22:01
Enkódoval                                : libebml v1.3.0 + libmatroska v1.4.0

Video
ID                                       : 1
Formát                                   : AVC
Formát/                                  : Advanced Video Codec
Format_Profile                           : High@L4.1
Format_Settings_CABAC/String             : Ano
Format_Settings_RefFrames/String         : 5 frame
CodecID                                  : V_MPEG4/ISO/AVC
Duration/String                          : 2h 0mn
Bit rate                                 : 4 962 Kbps
Šířka                                    : 1 280pixely
Výška                                    : 536pixely
Poměr stran                              : 2,40:1
Frame rate                               : 23,976 fps
ColorSpace                               : YUV
ChromaSubsampling                        : 4:2:0
BitDepth/String                          : 8 bits
ScanType/String                          : Progressive
Bits/(Pixel*Frame)                       : 0.302
StreamSize/String                        : 4,09 GiB (83%)
Enkódoval                                : x264 core 148 r2705 3f5ed56
Nastavení enkoderu                       : cabac=1 / ref=5 / deblock=1:0:0 / analyse=0x3:0x133 / me=umh / subme=7 / psy=1 / psy_rd=1.00:0.00 / mixed_ref=1 / me_range=16 / chroma_me=1 / trellis=1 / 8x8dct=1 / cqm=0 / deadzone=21,11 / fast_pskip=0 / chroma_qp_offset=-2 / threads=17 / lookahead_threads=2 / sliced_threads=0 / nr=0 / decimate=1 / interlaced=0 / bluray_compat=0 / constrained_intra=0 / bframes=3 / b_pyramid=2 / b_adapt=1 / b_bias=0 / direct=1 / weightb=1 / open_gop=0 / weightp=2 / keyint=250 / keyint_min=23 / scenecut=40 / intra_refresh=0 / rc_lookahead=40 / rc=2pass / mbtree=1 / bitrate=4962 / ratetol=1.0 / qcomp=0.60 / qpmin=0 / qpmax=69 / qpstep=4 / cplxblur=20.0 / qblur=0.5 / ip_ratio=1.40 / aq=1:1.00
Jazyk                                    : English
Default                                  : Ano
Forced                                   : Ne
DURATION                                 : 02:00:52.007000000
NUMBER_OF_FRAMES                         : 173874
NUMBER_OF_BYTES                          : 4492883713
_STATISTICS_WRITING_APP                  : mkvmerge v8.3.0 ('Over the Horizon') 64bit
_STATISTICS_WRITING_DATE_UTC             : 2016-10-18 23:52:01
_STATISTICS_TAGS                         : BPS DURATION NUMBER_OF_FRAMES NUMBER_OF_BYTES

Audio #1
ID                                       : 2
Formát                                   : AC-3
Formát/                                  : Audio Coding 3
Format_Settings_ModeExtension            : CM (complete main)
Format_Settings_Endianness               : Big
CodecID                                  : A_AC3
Duration/String                          : 2h 0mn
Bit rate                                 : 640 Kbps
Kanál(y)                                 : 6 kanály
Channel positions                        : Front: L C R, Side: L R, LFE
Sampling rate                            : 48,0 KHz
BitDepth/String                          : 16 bits
StreamSize/String                        : 553 MiB (11%)
Titul                                    : EN AC3 5.1 @ 640 Kbps
Jazyk                                    : English
Default                                  : Ne
Forced                                   : Ne

Audio #2
ID                                       : 3
Formát                                   : AC-3
Formát/                                  : Audio Coding 3
Format_Settings_ModeExtension            : CM (complete main)
Format_Settings_Endianness               : Big
CodecID                                  : A_AC3
Duration/String                          : 2h 0mn
Bit rate                                 : 224 Kbps
Kanál(y)                                 : 2 kanály
Channel positions                        : Front: L R
Sampling rate                            : 48,0 KHz
BitDepth/String                          : 16 bits
StreamSize/String                        : 194 MiB (4%)
Titul                                    : CZ AC3 2.0 @ 224 Kbps
Jazyk                                    : Czech
Default                                  : Ne
Forced                                   : Ano

Text #1
ID                                       : 4
Formát                                   : UTF-8
CodecID                                  : S_TEXT/UTF8
/                                        : UTF-8 Plain Text
Titul                                    : CZ
Jazyk                                    : Czech
Default                                  : Ne
Forced                                   : Ne

Text #2
ID                                       : 5
Formát                                   : UTF-8
CodecID                                  : S_TEXT/UTF8
/                                        : UTF-8 Plain Text
Titul                                    : SK
Jazyk                                    : Slovak
Default                                  : Ne
Forced                                   : Ne

Text #3
ID                                       : 6
Formát                                   : UTF-8
CodecID                                  : S_TEXT/UTF8
/                                        : UTF-8 Plain Text
Titul                                    : EN
Jazyk                                    : English
Default                                  : Ne
Forced                                   : Ne


Obrázek
  Kód:   Vybrat vše
http://fastshare.cz/7401877/foid5.part1.rar
http://fastshare.cz/7401896/foid5.part2.rar
http://fastshare.cz/7401911/foid5.part3.rar

  Kód:   Vybrat vše
http://euroshare.eu/file/s70CkC61r7/foid5.part1.rar
http://euroshare.eu/file/BI1Xg6S356/foid5.part2.rar
http://euroshare.eu/file/t1jf06wh58/foid5.part3.rar

Přidán záznam na opravu dat 5%.
Anthropoid.2016.1080p.BluRay.x264.CZ
Jazyk: Czech 2.0 224 Kbps , English 5.1 640 Kbps
Subtitles:Czech , Slovak , English

iNFO

  Kód:   Vybrat vše
Formát                                   : Matroska
Format_Version                           : Version 4 / Version 2
Velikost souboru                         : 13,9 GiB
Duration/String                          : 2h 0mn
Celkový BitRate                          : 16,5 Mbps
Encoded date                             : UTC 2017-05-28 23:59:18
Použitý software                         : mkvmerge v6.2.0 ('Promised Land') built on Apr 28 2013 12:22:01
Enkódoval                                : libebml v1.3.0 + libmatroska v1.4.0
DURATION                                 : 01:46:57.303000000
NUMBER_OF_FRAMES                         : 1135
NUMBER_OF_BYTES                          : 32278
_STATISTICS_WRITING_APP                  : mkvmerge v9.4.2 ('So High') 64bit
_STATISTICS_WRITING_DATE_UTC             : 2016-10-24 18:26:14
_STATISTICS_TAGS                         : BPS DURATION NUMBER_OF_FRAMES NUMBER_OF_BYTES

Video
ID                                       : 1
Formát                                   : AVC
Formát/                                  : Advanced Video Codec
Format_Profile                           : High@L4.1
Format_Settings_CABAC/String             : Ano
Format_Settings_RefFrames/String         : 5 frame
CodecID                                  : V_MPEG4/ISO/AVC
Duration/String                          : 2h 0mn
Bit rate                                 : 15,3 Mbps
Šířka                                    : 1 920pixely
Výška                                    : 804pixely
Poměr stran                              : 2,40:1
Frame rate                               : 23,976 fps
ColorSpace                               : YUV
ChromaSubsampling                        : 4:2:0
BitDepth/String                          : 8 bits
ScanType/String                          : Progressive
Bits/(Pixel*Frame)                       : 0.414
StreamSize/String                        : 12,9 GiB (93%)
Enkódoval                                : x264 core 146 r2538 121396c
Nastavení enkoderu                       : cabac=1 / ref=5 / deblock=1:-3:-3 / analyse=0x3:0x133 / me=tesa / subme=11 / psy=1 / psy_rd=1.04:0.00 / mixed_ref=1 / me_range=32 / chroma_me=1 / trellis=2 / 8x8dct=1 / cqm=0 / deadzone=21,11 / fast_pskip=0 / chroma_qp_offset=-2 / threads=60 / lookahead_threads=6 / sliced_threads=0 / nr=0 / decimate=0 / interlaced=0 / bluray_compat=0 / constrained_intra=0 / bframes=14 / b_pyramid=2 / b_adapt=2 / b_bias=0 / direct=3 / weightb=1 / open_gop=0 / weightp=2 / keyint=240 / keyint_min=23 / scenecut=40 / intra_refresh=0 / rc_lookahead=150 / rc=crf / mbtree=0 / crf=19.7 / qcomp=0.60 / qpmin=0 / qpmax=69 / qpstep=4 / vbv_maxrate=62500 / vbv_bufsize=78125 / crf_max=0.0 / nal_hrd=none / filler=0 / ip_ratio=1.40 / pb_ratio=1.30 / aq=1:0.80 / zones=162931,173874,b=0.2
Jazyk                                    : English
Default                                  : Ano
Forced                                   : Ne
matrix_coefficients                      : BT.709

Audio #1
ID                                       : 2
Formát                                   : AC-3
Formát/                                  : Audio Coding 3
Format_Settings_ModeExtension            : CM (complete main)
Format_Settings_Endianness               : Big
CodecID                                  : A_AC3
Duration/String                          : 2h 0mn
Bit rate                                 : 640 Kbps
Kanál(y)                                 : 6 kanály
Channel positions                        : Front: L C R, Side: L R, LFE
Sampling rate                            : 48,0 KHz
BitDepth/String                          : 16 bits
StreamSize/String                        : 553 MiB (4%)
Titul                                    : EN AC3 5.1 @ 640 Kbps
Jazyk                                    : English
Default                                  : Ne
Forced                                   : Ne

Audio #2
ID                                       : 3
Formát                                   : AC-3
Formát/                                  : Audio Coding 3
Format_Settings_ModeExtension            : CM (complete main)
Format_Settings_Endianness               : Big
CodecID                                  : A_AC3
Duration/String                          : 2h 0mn
Bit rate                                 : 224 Kbps
Kanál(y)                                 : 2 kanály
Channel positions                        : Front: L R
Sampling rate                            : 48,0 KHz
BitDepth/String                          : 16 bits
StreamSize/String                        : 194 MiB (1%)
Titul                                    : CZ AC3 2.0 @ 224 Kbps
Jazyk                                    : Czech
Default                                  : Ne
Forced                                   : Ano

Text #1
ID                                       : 4
Formát                                   : UTF-8
CodecID                                  : S_TEXT/UTF8
/                                        : UTF-8 Plain Text
Jazyk                                    : Czech
Default                                  : Ano
Forced                                   : Ne

Text #2
ID                                       : 5
Formát                                   : UTF-8
CodecID                                  : S_TEXT/UTF8
/                                        : UTF-8 Plain Text
Titul                                    : SK
Jazyk                                    : Slovak
Default                                  : Ne
Forced                                   : Ne

Text #3
ID                                       : 6
Formát                                   : UTF-8
CodecID                                  : S_TEXT/UTF8
/                                        : UTF-8 Plain Text
Titul                                    : English
Jazyk                                    : English
Default                                  : Ne
Forced                                   : Ne

Text #4
ID                                       : 7
Formát                                   : UTF-8
CodecID                                  : S_TEXT/UTF8
/                                        : UTF-8 Plain Text
Titul                                    : English-SDH
Jazyk                                    : English
Default                                  : Ne
Forced                                   : Ne


Obrázek
  Kód:   Vybrat vše
http://fastshare.cz/7401944/foid6.part1.rar
http://fastshare.cz/7402011/foid6.part2.rar
http://fastshare.cz/7402146/foid6.part3.rar
http://fastshare.cz/7402211/foid6.part4.rar
http://fastshare.cz/7402720/foid6.part5.rar
http://fastshare.cz/7402857/foid6.part6.rar
http://fastshare.cz/7402959/foid6.part7.rar
http://fastshare.cz/7403023/foid6.part8.rar

  Kód:   Vybrat vše
http://euroshare.eu/file/R51X2N3tG4/foid6.part1.rar
http://euroshare.eu/file/1XR6lbws4p/foid6.part2.rar
http://euroshare.eu/file/o8ezvDAl5f/foid6.part3.rar
http://euroshare.eu/file/3YDU3j94U9/foid6.part4.rar
http://euroshare.eu/file/ZywyN85RuN/foid6.part5.rar
http://euroshare.eu/file/v1X18l6tfw/foid6.part6.rar
http://euroshare.eu/file/803nfuzyY0/foid6.part7.rar
http://euroshare.eu/file/k5Pyvu4DdR/foid6.part8.rar

Přidán záznam na opravu dat 5%.
Naposledy upravil Stanley dne 31 kvě 2017, 05:47, celkově upraveno 1
Důvod: Oprava názvu tématu
<<

Jackie Chan


Pokročilý


Uploader

ID Užívateľa: 12621

Registrován: 14 srp 2010, 22:49



Příspěvky: 310
(Zobraziť: Všetko /Témy)

Poďakoval som: 0 krát

Poďakovali my: 0 krát



Peňazí na ruke: 8,203.15



Karma: 0

Medaile: 1

Uploader mesiaca (1)

Příspěvek 18 čer 2017, 14:33

Anthropoid / Anthropoid (2016)

Anthropoid (2016)

Anthropoid.2016.LIMITED.720p.BluRay.X264.CZ.MiKi
Anthropoid.2016.LIMITED.1080p.BluRay.X264.CZ.MiKi

Obrázek
CSFD
  Kód:   Vybrat vše
https://www.csfd.cz/film/405971-anthropoid/prehled/


Anthropoid.2016.LIMITED.720p.BluRay.X264.CZ.MiKi
Jazyk : CZ AC3 2.0 @ 224 Kbps / EN DTS 5.1 @ 1509 Kbps
Titulky : CZ Forced / CZ / SK / EN

MediaInfo
  Kód:   Vybrat vše
Format                                   : Matroska
Format version                           : Version 4 / Version 2
File size                                : 5.65 GiB
Duration                                 : 2 h 0 min
Overall bit rate                         : 6 692 kb/s
Encoded date                             : UTC 2017-06-15 14:59:57
Writing application                      : mkvmerge v8.0.0 ('Til The Day That I Die') 64bit
Writing library                          : libebml v1.3.1 + libmatroska v1.4.2

Video
ID                                       : 1
Format                                   : AVC
Format/Info                              : Advanced Video Codec
Format profile                           : High@L4.1
Format settings, CABAC                   : Yes
Format settings, ReFrames                : 5 frames
Codec ID                                 : V_MPEG4/ISO/AVC
Duration                                 : 2 h 0 min
Bit rate                                 : 4 962 kb/s
Width                                    : 1 280 pixels
Height                                   : 536 pixels
Display aspect ratio                     : 2.40:1
Frame rate mode                          : Constant
Frame rate                               : 23.976 FPS
Color space                              : YUV
Chroma subsampling                       : 4:2:0
Bit depth                                : 8 bits
Scan type                                : Progressive
Bits/(Pixel*Frame)                       : 0.302
Stream size                              : 4.18 GiB (74%)
Title                                    : Anthropoid.2016.LIMITED.720p.BluRay.X264.CZ.MiKi
Writing library                          : x264 core 148 r2705 3f5ed56
Encoding settings                        : cabac=1 / ref=5 / deblock=1:0:0 / analyse=0x3:0x133 / me=umh / subme=7 / psy=1 / psy_rd=1.00:0.00 / mixed_ref=1 / me_range=16 / chroma_me=1 / trellis=1 / 8x8dct=1 / cqm=0 / deadzone=21,11 / fast_pskip=0 / chroma_qp_offset=-2 / threads=17 / lookahead_threads=2 / sliced_threads=0 / nr=0 / decimate=1 / interlaced=0 / bluray_compat=0 / constrained_intra=0 / bframes=3 / b_pyramid=2 / b_adapt=1 / b_bias=0 / direct=1 / weightb=1 / open_gop=0 / weightp=2 / keyint=250 / keyint_min=23 / scenecut=40 / intra_refresh=0 / rc_lookahead=40 / rc=2pass / mbtree=1 / bitrate=4962 / ratetol=1.0 / qcomp=0.60 / qpmin=0 / qpmax=69 / qpstep=4 / cplxblur=20.0 / qblur=0.5 / ip_ratio=1.40 / aq=1:1.00
Language                                 : English
Default                                  : Yes
Forced                                   : No

Audio #1
ID                                       : 2
Format                                   : AC-3
Format/Info                              : Audio Coding 3
Format settings, Endianness              : Big
Codec ID                                 : A_AC3
Duration                                 : 2 h 0 min
Bit rate mode                            : Constant
Bit rate                                 : 224 kb/s
Channel(s)                               : 2 channels
Channel positions                        : Front: L R
Sampling rate                            : 48.0 kHz
Frame rate                               : 31.250 FPS (1536 spf)
Bit depth                                : 16 bits
Compression mode                         : Lossy
Stream size                              : 194 MiB (3%)
Title                                    : CZ AC3 2.0 @ 224 Kbps
Language                                 : Czech
Service kind                             : Complete Main
Default                                  : Yes
Forced                                   : No

Audio #2
ID                                       : 3
Format                                   : DTS
Format/Info                              : Digital Theater Systems
Mode                                     : 16
Format settings, Endianness              : Big
Codec ID                                 : A_DTS
Duration                                 : 2 h 0 min
Bit rate mode                            : Constant
Bit rate                                 : 1 509 kb/s
Channel(s)                               : 6 channels
Channel positions                        : Front: L C R, Side: L R, LFE
Sampling rate                            : 48.0 kHz
Frame rate                               : 93.750 FPS (512 spf)
Bit depth                                : 24 bits
Compression mode                         : Lossy
Stream size                              : 1.27 GiB (23%)
Title                                    : EN DTS 5.1 @ 1509 Kbps
Language                                 : English
Default                                  : No
Forced                                   : No

Text #1
ID                                       : 4
Format                                   : UTF-8
Codec ID                                 : S_TEXT/UTF8
Codec ID/Info                            : UTF-8 Plain Text
Duration                                 : 1 h 53 min
Bit rate                                 : 1 b/s
Count of elements                        : 24
Stream size                              : 1.41 KiB (0%)
Title                                    : CZ Forced
Language                                 : Czech
Default                                  : Yes
Forced                                   : Yes

Text #2
ID                                       : 5
Format                                   : UTF-8
Codec ID                                 : S_TEXT/UTF8
Codec ID/Info                            : UTF-8 Plain Text
Duration                                 : 1 h 53 min
Bit rate                                 : 34 b/s
Count of elements                        : 907
Stream size                              : 28.5 KiB (0%)
Title                                    : CZ
Language                                 : Czech
Default                                  : No
Forced                                   : No

Text #3
ID                                       : 6
Format                                   : UTF-8
Codec ID                                 : S_TEXT/UTF8
Codec ID/Info                            : UTF-8 Plain Text
Duration                                 : 1 h 54 min
Bit rate                                 : 34 b/s
Count of elements                        : 909
Stream size                              : 28.6 KiB (0%)
Title                                    : SK
Language                                 : Slovak
Default                                  : No
Forced                                   : No

Text #4
ID                                       : 7
Format                                   : UTF-8
Codec ID                                 : S_TEXT/UTF8
Codec ID/Info                            : UTF-8 Plain Text
Duration                                 : 1 h 44 min
Bit rate                                 : 35 b/s
Count of elements                        : 892
Stream size                              : 27.6 KiB (0%)
Title                                    : EN
Language                                 : English
Default                                  : No
Forced                                   : No

Menu
00:00:00.000                             : en:00:00:00.000
00:08:32.053                             : en:00:08:32.053
00:12:57.860                             : en:00:12:57.860
00:18:48.294                             : en:00:18:48.294
00:24:35.599                             : en:00:24:35.599
00:28:54.107                             : en:00:28:54.107
00:34:02.916                             : en:00:34:02.916
00:39:41.754                             : en:00:39:41.754
00:48:59.103                             : en:00:48:59.103
00:56:04.987                             : en:00:56:04.987
00:59:55.842                             : en:00:59:55.842
01:06:37.535                             : en:01:06:37.535
01:12:14.997                             : en:01:12:14.997
01:17:09.041                             : en:01:17:09.041
01:23:09.693                             : en:01:23:09.693
01:28:13.121                             : en:01:28:13.121
01:32:06.396                             : en:01:32:06.396
01:39:01.769                             : en:01:39:01.769
01:44:39.482                             : en:01:44:39.482
01:54:37.829                             : en:01:54:37.829

Download
  Kód:   Vybrat vše
http://fastshare.cz/7462399/anthropoid.2016.limited.720p.bluray.x264.cz.miki.part1.rar
http://fastshare.cz/7462487/anthropoid.2016.limited.720p.bluray.x264.cz.miki.part2.rar
http://fastshare.cz/7462618/anthropoid.2016.limited.720p.bluray.x264.cz.miki.part3.rar
http://fastshare.cz/7462623/anthropoid.2016.limited.720p.bluray.x264.cz.miki.part4.rar

No Pass

=============================================

Anthropoid.2016.LIMITED.1080p.BluRay.X264.CZ.MiKi
Jazyk : CZ AC3 2.0 @ 224 Kbps / EN DTS 5.1 @ 1509 Kbps
Titulky : CZ Forced / CZ / SK / EN

MediaInfo
  Kód:   Vybrat vše
Format                                   : Matroska
Format version                           : Version 4 / Version 2
File size                                : 8.93 GiB
Duration                                 : 2 h 0 min
Overall bit rate                         : 10.6 Mb/s
Encoded date                             : UTC 2017-06-15 15:13:04
Writing application                      : mkvmerge v8.0.0 ('Til The Day That I Die') 64bit
Writing library                          : libebml v1.3.1 + libmatroska v1.4.2

Video
ID                                       : 1
Format                                   : AVC
Format/Info                              : Advanced Video Codec
Format profile                           : High@L4.1
Format settings, CABAC                   : Yes
Format settings, ReFrames                : 5 frames
Codec ID                                 : V_MPEG4/ISO/AVC
Duration                                 : 2 h 0 min
Bit rate                                 : 8 849 kb/s
Width                                    : 1 920 pixels
Height                                   : 808 pixels
Display aspect ratio                     : 2.40:1
Frame rate mode                          : Constant
Frame rate                               : 23.976 FPS
Color space                              : YUV
Chroma subsampling                       : 4:2:0
Bit depth                                : 8 bits
Scan type                                : Progressive
Bits/(Pixel*Frame)                       : 0.238
Stream size                              : 7.46 GiB (84%)
Title                                    : Anthropoid.2016.LIMITED.1080p.BluRay.X264.CZ.MiKi
Writing library                          : x264 core 148 r2692 64f4e24
Encoding settings                        : cabac=1 / ref=5 / deblock=1:0:0 / analyse=0x3:0x133 / me=umh / subme=7 / psy=1 / psy_rd=1.00:0.00 / mixed_ref=1 / me_range=16 / chroma_me=1 / trellis=1 / 8x8dct=1 / cqm=0 / deadzone=21,11 / fast_pskip=0 / chroma_qp_offset=-2 / threads=25 / lookahead_threads=4 / sliced_threads=0 / nr=0 / decimate=1 / interlaced=0 / bluray_compat=0 / constrained_intra=0 / bframes=3 / b_pyramid=2 / b_adapt=1 / b_bias=0 / direct=1 / weightb=1 / open_gop=0 / weightp=2 / keyint=250 / keyint_min=23 / scenecut=40 / intra_refresh=0 / rc_lookahead=40 / rc=2pass / mbtree=1 / bitrate=8849 / ratetol=1.0 / qcomp=0.60 / qpmin=0 / qpmax=69 / qpstep=4 / cplxblur=20.0 / qblur=0.5 / ip_ratio=1.40 / aq=1:1.00
Language                                 : English
Default                                  : Yes
Forced                                   : No

Audio #1
ID                                       : 2
Format                                   : AC-3
Format/Info                              : Audio Coding 3
Format settings, Endianness              : Big
Codec ID                                 : A_AC3
Duration                                 : 2 h 0 min
Bit rate mode                            : Constant
Bit rate                                 : 224 kb/s
Channel(s)                               : 2 channels
Channel positions                        : Front: L R
Sampling rate                            : 48.0 kHz
Frame rate                               : 31.250 FPS (1536 spf)
Bit depth                                : 16 bits
Compression mode                         : Lossy
Stream size                              : 194 MiB (2%)
Title                                    : CZ AC3 2.0 @ 224 Kbps
Language                                 : Czech
Service kind                             : Complete Main
Default                                  : Yes
Forced                                   : No

Audio #2
ID                                       : 3
Format                                   : DTS
Format/Info                              : Digital Theater Systems
Mode                                     : 16
Format settings, Endianness              : Big
Codec ID                                 : A_DTS
Duration                                 : 2 h 0 min
Bit rate mode                            : Constant
Bit rate                                 : 1 509 kb/s
Channel(s)                               : 6 channels
Channel positions                        : Front: L C R, Side: L R, LFE
Sampling rate                            : 48.0 kHz
Frame rate                               : 93.750 FPS (512 spf)
Bit depth                                : 24 bits
Compression mode                         : Lossy
Stream size                              : 1.27 GiB (14%)
Title                                    : EN DTS 5.1 @ 1509 Kbps
Language                                 : English
Default                                  : No
Forced                                   : No

Text #1
ID                                       : 4
Format                                   : UTF-8
Codec ID                                 : S_TEXT/UTF8
Codec ID/Info                            : UTF-8 Plain Text
Duration                                 : 1 h 53 min
Bit rate                                 : 1 b/s
Count of elements                        : 24
Stream size                              : 1.41 KiB (0%)
Title                                    : CZ Forced
Language                                 : Czech
Default                                  : Yes
Forced                                   : Yes

Text #2
ID                                       : 5
Format                                   : UTF-8
Codec ID                                 : S_TEXT/UTF8
Codec ID/Info                            : UTF-8 Plain Text
Duration                                 : 1 h 53 min
Bit rate                                 : 34 b/s
Count of elements                        : 907
Stream size                              : 28.5 KiB (0%)
Title                                    : CZ
Language                                 : Czech
Default                                  : No
Forced                                   : No

Text #3
ID                                       : 6
Format                                   : UTF-8
Codec ID                                 : S_TEXT/UTF8
Codec ID/Info                            : UTF-8 Plain Text
Duration                                 : 1 h 54 min
Bit rate                                 : 34 b/s
Count of elements                        : 909
Stream size                              : 28.6 KiB (0%)
Title                                    : SK
Language                                 : Slovak
Default                                  : No
Forced                                   : No

Text #4
ID                                       : 7
Format                                   : UTF-8
Codec ID                                 : S_TEXT/UTF8
Codec ID/Info                            : UTF-8 Plain Text
Duration                                 : 1 h 44 min
Bit rate                                 : 35 b/s
Count of elements                        : 892
Stream size                              : 27.6 KiB (0%)
Title                                    : EN
Language                                 : English
Default                                  : No
Forced                                   : No

Menu
00:00:00.000                             : en:00:00:00.000
00:08:32.053                             : en:00:08:32.053
00:12:57.860                             : en:00:12:57.860
00:18:48.294                             : en:00:18:48.294
00:24:35.599                             : en:00:24:35.599
00:28:54.107                             : en:00:28:54.107
00:34:02.916                             : en:00:34:02.916
00:39:41.754                             : en:00:39:41.754
00:48:59.103                             : en:00:48:59.103
00:56:04.987                             : en:00:56:04.987
00:59:55.842                             : en:00:59:55.842
01:06:37.535                             : en:01:06:37.535
01:12:14.997                             : en:01:12:14.997
01:17:09.041                             : en:01:17:09.041
01:23:09.693                             : en:01:23:09.693
01:28:13.121                             : en:01:28:13.121
01:32:06.396                             : en:01:32:06.396
01:39:01.769                             : en:01:39:01.769
01:44:39.482                             : en:01:44:39.482
01:54:37.829                             : en:01:54:37.829

Download
  Kód:   Vybrat vše
http://fastshare.cz/7462836/anthropoid.2016.limited.1080p.bluray.x264.cz.miki.part1.rar
http://fastshare.cz/7463016/anthropoid.2016.limited.1080p.bluray.x264.cz.miki.part2.rar
http://fastshare.cz/7463086/anthropoid.2016.limited.1080p.bluray.x264.cz.miki.part3.rar
http://fastshare.cz/7463138/anthropoid.2016.limited.1080p.bluray.x264.cz.miki.part4.rar
http://fastshare.cz/7463166/anthropoid.2016.limited.1080p.bluray.x264.cz.miki.part5.rar

No Pass




Zpět na HD filmy cz/sk



Kdo je online

Uživatelé procházející toto fórum: Žádní registrovaní uživatelé a 0 návštevníků

Powered by phpBB © 2000, 2002, 2005, 2007 phpBB Group.
Designed by ST Software.
Installed phpBB version: 3.0.12
Český překlad – phpBB.cz
Karma functions powered by Karma MOD © 2007, 2009 m157y
phpBB SEO
Protected by Anti-Spam ACP
TOPlist