Příspěvek 11 led 2019, 20:26

Armáda temnot / Army of Darkness (1992)

Armáda temnot / Army of Darkness (1992)

Video/Zdroj: BDRip 1080p
Audio: CZ AC-3 2ch, EN DTS 5.1ch


Obrázek

CSFD / IMDB
  Kód:   Vybrat vše
https://www.csfd.cz/film/7552-armada-temnot/prehled/
https://www.imdb.com/title/tt0106308/?ref_=nv_sr_3


INFO
Format : Matroska
Format version : Version 4 / Version 2
File size : 6.71 GiB
Duration : 1 h 28 min
Overall bit rate : 10.8 Mb/s

Video
Format : AVC
Format profile : High@L4
Duration : 1 h 28 min
Bit rate : 8 878 kb/s
Width : 1 920 pixels
Height : 1 040 pixels
Display aspect ratio : 1.85:1
Frame rate mode : Constant
Frame rate : 23.976 (24000/1001) FPS
Color space : YUV
Chroma subsampling : 4:2:0
Bit depth : 8 bits
Scan type : Progressive
Bits/(Pixel*Frame) : 0.185
Stream size : 5.50 GiB (82%)

Audio #1
Format : AC-3
Duration : 1 h 28 min
Bit rate mode : Constant
Bit rate : 448 kb/s
Channel(s) : 2 channels
Channel positions : Front: L R
Sampling rate : 48.0 kHz
Frame rate : 31.250 FPS (1536 SPF)
Bit depth : 16 bits
Compression mode : Lossy
Delay relative to video : 2 ms
Stream size : 284 MiB (4%)
Language : Czech
Default : Yes
Forced : No

Audio #2
Format : DTS
Duration : 1 h 28 min
Bit rate mode : Constant
Bit rate : 1 509 kb/s
Channel(s) : 6 channels
Channel positions : Front: L C R, Side: L R, LFE
Sampling rate : 48.0 kHz
Frame rate : 93.750 FPS (512 SPF)
Bit depth : 24 bits
Compression mode : Lossy
Stream size : 958 MiB (14%)
Title : ENG-dts-1509 kbps-5.1
Language : English
Default : No
Forced : No


FASTSHARE

  Kód:   Vybrat vše
http://fastshare.cz/11025100/armada-temnot-1992-1080p-cz-en.mkv