Příspěvek 28 čer 2018, 15:51

Batman a Robin / Batman & Robin (1997)

Batman a Robin / Batman & Robin (1997)
Zdroj/Video: BluRay 1080p
Audio: CZ 2.0ch AC-3, EN 5.1ch DTS, EN commentary 2ch Vorbis
Titulky: EN, DK, FI, FR, DE, IT, NL, NO, PT, ES, SE

Obrázek

  Kód:   Vybrat vše
https://www.csfd.cz/film/8215-batman-a-robin/prehled/
http://www.imdb.com/title/tt0118688/?ref_=nv_sr_1


  Kód:   Vybrat vše
Format                      : Matroska
Format version              : Version 4 / Version 2
File size                   : 12.2 GiB
Duration                    : 2 h 4 min
Overall bit rate mode       : Variable
Overall bit rate            : 14.0 Mb/s

Video
Format                      : AVC
Format profile              : High@L4.1
Codec ID                    : V_MPEG4/ISO/AVC
Duration                    : 2 h 4 min
Bit rate                    : 11.9 Mb/s
Width                       : 1 920 pixels
Height                      : 1 080 pixels
Display aspect ratio        : 16:9
Frame rate mode             : Constant
Frame rate                  : 23.976 FPS
Color space                 : YUV
Chroma subsampling          : 4:2:0
Bit depth                   : 8 bits
Scan type                   : Progressive
Bits/(Pixel*Frame)          : 0.238
Stream size                 : 10.3 GiB (85%)

Audio #1
Format                      : AC-3
Mode                        : Dolby Digital
Duration                    : 2 h 4 min
Bit rate mode               : Constant
Bit rate                    : 192 kb/s
Channel(s)                  : 2 channels
Channel positions           : Front: L R
Sampling rate               : 48.0 kHz
Frame rate                  : 31.250 FPS (1536 SPF)
Bit depth                   : 16 bits
Compression mode            : Lossy
Delay relative to video     : 3 s 200 ms
Stream size                 : 172 MiB (1%)
Language                    : Czech
Default                     : Yes
Forced                      : No

Audio #2
Format                      : DTS
Duration                    : 2 h 4 min
Bit rate mode               : Constant
Bit rate                    : 1 510 kb/s
Channel(s)                  : 6 channels
Channel positions           : Front: L C R, Side: L R, LFE
Sampling rate               : 48.0 kHz
Frame rate                  : 93.750 FPS (512 SPF)
Bit depth                   : 24 bits
Compression mode            : Lossy
Stream size                 : 1.32 GiB (11%)
Language                    : English
Default                     : No
Forced                      : No

Audio #3
Format                      : Vorbis
Duration                    : 2 h 4 min
Bit rate mode               : Variable
Bit rate                    : 80.0 kb/s
Channel(s)                  : 2 channels
Sampling rate               : 48.0 kHz
Compression mode            : Lossy
Stream size                 : 71.5 MiB (1%)
Title                       : Commentary
Language                    : English
Default                     : No
Forced                      : No

Audio #4
Format                      : Vorbis
Duration                    : 2 h 4 min
Bit rate mode               : Variable
Bit rate                    : 64.0 kb/s
Channel(s)                  : 2 channels
Sampling rate               : 48.0 kHz
Compression mode            : Lossy
Stream size                 : 57.2 MiB (0%)
Title                       : Commentary Track
Default                     : No
Forced                      : No

Text #1
Format                      : ASS
Language                    : English
Default                     : No
Forced                      : No

Text #2
Format                      : ASS
Language                    : Danish
Default                     : No
Forced                      : No

Text #3
Format                      : ASS
Language                    : Finnish
Default                     : No
Forced                      : No

Text #4
Format                      : ASS
Language                    : French
Default                     : No
Forced                      : No

Text #5
Format                      : ASS
Language                    : German
Default                     : No
Forced                      : No

Text #6
Format                      : ASS
Language                    : Italian
Default                     : No
Forced                      : No

Text #7
Format                      : ASS
Language                    : Dutch
Default                     : No
Forced                      : No

Text #8
Format                      : ASS
Language                    : Norwegian
Default                     : No
Forced                      : No

Text #9
Format                      : ASS
Language                    : Portuguese
Default                     : No
Forced                      : No

Text #10
Format                      : ASS
Language                    : Spanish
Default                     : No
Forced                      : No

Text #11
Format                      : ASS
Language                    : Swedish
Default                     : No
Forced                      : No


  Kód:   Vybrat vše
http://fastshare.cz/9935003/baaro.part1.rar
http://fastshare.cz/9935011/baaro.part2.rar
http://fastshare.cz/9935018/baaro.part3.rar
http://fastshare.cz/9935028/baaro.part4.rar
http://fastshare.cz/9935036/baaro.part5.rar
http://fastshare.cz/9935040/baaro.part6.rar
http://fastshare.cz/9935047/baaro.part7.rar


Balené bez kompresie. Bez hesla. Pridaný záznam pre opravu dát 5%.