Příspěvek 03 srp 2018, 16:39

Big Boss, The / Velký šéf (1971)

Big Boss, The / Velký šéf (1971)
Video/Zdroj: BluRay 1080p
Audio: Chinese DTS 1509kbps 5.1ch
Subtitles: EN, CZ-external

  Kód:   Vybrat vše
http://www.csfd.cz/film/25056-velky-sef/prehled/
https://www.imdb.com/title/tt0067824/?ref_=fn_al_tt_1


Obrázek

  Kód:   Vybrat vše
Format                                   : Matroska
Format version                           : Version 1
File size                                : 7.95 GiB
Duration                                 : 1h 39mn
Overall bit rate                         : 11.4 Mbps

Video
Format                                   : AVC
Format profile                           : High@L4.1
Duration                                 : 1h 39mn
Bit rate                                 : 9 904 Kbps
Width                                    : 1 920 pixels
Height                                   : 816 pixels
Display aspect ratio                     : 2.35:1
Frame rate mode                          : Constant
Frame rate                               : 23.976 fps
Color space                              : YUV
Chroma subsampling                       : 4:2:0
Bit depth                                : 8 bits
Scan type                                : Progressive
Bits/(Pixel*Frame)                       : 0.264
Stream size                              : 6.74 GiB (85%)

Audio
Format                                   : DTS
Duration                                 : 1h 39mn
Bit rate mode                            : Constant
Bit rate                                 : 1 509 Kbps
Channel(s)                               : 6 channels
Channel positions                        : Front: L C R, Side: L R, LFE
Sampling rate                            : 48.0 KHz
Bit depth                                : 16 bits
Compression mode                         : Lossy
Stream size                              : 1.05 GiB (13%)
Language                                 : Chinese
Default                                  : Yes
Forced                                   : No

Text
Format                                   : UTF-8
Language                                 : English
Default                                  : Yes
Forced                                   : No

Format                                   : TXT
Language                                  : Czech


Fastshare
  Kód:   Vybrat vše
http://fastshare.cz/10083806/tbb.part1.rar
http://fastshare.cz/10083814/tbb.part2.rar
http://fastshare.cz/10083821/tbb.part3.rar
http://fastshare.cz/10083828/tbb.part4.rar
http://fastshare.cz/10083831/tbb.part5.rar


Balené bez kompresie. Bez hesla. Pridaný záznam pre opravu dát 5%.