Příspěvek 30 kvě 2018, 12:41

Black Water / Black Water (2018)

Black.Water.2018.1080p.WEB-DL.DD5.1.H264-FGT.mkv + CZ Titulky




Cover:

Obrázek

Info:

  Kód:   Vybrat vše
Zvuk: ENG 5.1
Titulky: CZ
Kvalita zvuku: MediaInfo
Kvalita videa: MediaInfo

Csfd:
  Kód:   Vybrat vše
https://www.csfd.cz/film/481017-black-water/prehled/


Info:
  Kód:   Vybrat vše
Unique ID: 291109437817390357532875572030192166778 (0xDB01A36A28FC79C889BAD21B99CF277A)
Celý název a cesta: H:\Black Water\Black.Water.2018.1080p.WEB-DL.DD5.1.H264-FGT.mkv
Formát: Matroska
Format version: Version 4 / Version 2
Velikost souboru: 3.61 GiB
Duration: 1h 44mn
Overall bit rate: 4 945 Kbps
Název filmu: Black.Water.2018.1080p.WEB-DL.DD5.1.H264-FGT
Encoded date: UTC 2018-05-23 08:32:51
Použitý software: mkvmerge v22.0.0 ('At The End Of The World';) 64-bit
Enkódoval: libebml v1.3.5 + libmatroska v1.4.8
Attachements: small_cover.jpg / small_cover_land.jpg / cover.jpg / cover_land.jpg
DURATION: 01:44:39.456000000
NUMBER_OF_FRAMES: 196233
NUMBER_OF_BYTES: 301413888
_STATISTICS_WRITING_APP: mkvmerge v22.0.0 ('At The End Of The World';) 64-bit
_STATISTICS_WRITING_DATE_UTC: 2018-05-23 08:32:51
_STATISTICS_TAGS: BPS DURATION NUMBER_OF_FRAMES NUMBER_OF_BYTES

Video
ID: 1
Formát: AVC
Formát/Info: Advanced Video Codec
Format profile: High@L4.0
Format settings, CABAC: Ano
Format settings, ReFrames: 5 frames
Codec ID: V_MPEG4/ISO/AVC
Duration: 1h 44mn
Bit rate: 4 462 Kbps
Šířka: 1 918pixely
Výška: 800pixely
Display aspect ratio: 2.40:1
Frame rate mode: Constant
Frame rate: 23.976 fps
Color space: YUV
Chroma subsampling: 4:2:0
Bit depth: 8 bits
Scan type: Progressive
Bits/(Pixel*Frame): 0.121
Stream size: 3.26 GiB (90%)
Titul: Black.Water.2018.1080p.WEB-DL.DD5.1.H264-FGT
Jazyk: English
Default: Ano
Forced: Ne
Color primaries: BT.709
Transfer characteristics: BT.709
Matrix coefficients: BT.709
Color range: Limited

Audio
ID: 2
Formát: AC-3
Formát/Info: Audio Coding 3
Mode extension: CM (complete main)
Format settings, Endianness: Big
Codec ID: A_AC3
Duration: 1h 44mn
Bit rate mode: Constant
Bit rate: 384 Kbps
Kanál(y): 6 kanály
Channel positions: Front: L C R, Side: L R, LFE
Sampling rate: 48.0 KHz
Bit depth: 16 bits
Compression mode: Lossy
Stream size: 287 MiB (8%)
Titul: Black.Water.2018.1080p.WEB-DL.DD5.1.H264-FGT
Jazyk: English
Default: Ano
Forced: Ne



Download:
  Kód:   Vybrat vše
http://fastshare.cz/9372712/black.water.2018.1080p.web-dl.dd5.1.h264-fgt.mkv
https://fastshare.cz/9372669/black.water.2018.1080p.web-dl.dd5.1.h264-fgt.srt


  Kód:   Vybrat vše
https://webshare.cz/file/5zx1Eu1as2/black-water-2018-1080p-web-dl-dd5-1-h264-fgt-mkv
https://webshare.cz/file/4Q56tftiu9/black-water-2018-1080p-web-dl-dd5-1-h264-fgt-srt