Loading...
Oznam

:welcome:



warpark-Forum


Bůh války / God of War (2017)

Moderátor: drobec

<<

L0K0M0T1V


Pokročilý


Užívateľ

ID Užívateľa: 23474

Registrován: 03 lis 2017, 14:29



Příspěvky: 427
(Zobraziť: Všetko /Témy)

Poďakoval som: 0 krát

Poďakovali my: 0 krát



Peňazí na ruke: 4,999.35



Karma: 0

Příspěvek 25 pro 2017, 05:42

Bůh války / God of War (2017)

Bůh války / God of War / 2017


God.of.War.2017.720p.BluRay.x264.AC3.CZ
God.of.War.2017.1080p.BluRay.x264.AC3.CZ


Audio: CZ (2.0),CHI
Subtitles: EN

Obrázek

  Kód:   Vybrat vše
Info:

https://www.csfd.cz/film/503195
http://www.imdb.com/title/tt6083388/


God.of.War.2017.720p.BluRay.x264.AC3.CZ
  Kód:   Vybrat vše
Info
Format                                   : Matroska
Format version                           : Version 4 / Version 2
File size                                : 7.04 GiB
Duration                                 : 2 h 8 min
Overall bit rate                         : 7 838 kb/s
Encoded date                             : UTC 2017-12-25 02:29:25
Writing application                      : mkvmerge v6.4.1 ('Omega Point') built on Sep 16 2013 22:05:10
Writing library                          : libebml v1.3.0 + libmatroska v1.4.1

Video
ID                                       : 1
Format                                   : AVC
Format/Info                              : Advanced Video Codec
Format profile                           : High@L4.1
Format settings, CABAC                   : Yes
Format settings, RefFrames               : 12 frames
Codec ID                                 : V_MPEG4/ISO/AVC
Duration                                 : 2 h 8 min
Bit rate                                 : 7 000 kb/s
Width                                    : 1 280 pixels
Height                                   : 536 pixels
Display aspect ratio                     : 2.40:1
Frame rate mode                          : Constant
Frame rate                               : 24.000 FPS
Color space                              : YUV
Chroma subsampling                       : 4:2:0
Bit depth                                : 8 bits
Scan type                                : Progressive
Bits/(Pixel*Frame)                       : 0.425
Stream size                              : 6.12 GiB (87%)
Writing library                          : x264 core 146 r2538 121396c
Encoding settings                        : cabac=1 / ref=12 / deblock=1:-2:-2 / analyse=0x3:0x133 / me=umh / subme=10 / psy=1 / psy_rd=1.00:0.00 / mixed_ref=1 / me_range=32 / chroma_me=1 / trellis=2 / 8x8dct=1 / cqm=0 / deadzone=21,11 / fast_pskip=0 / chroma_qp_offset=-2 / threads=12 / lookahead_threads=1 / sliced_threads=0 / nr=0 / decimate=0 / interlaced=0 / bluray_compat=0 / constrained_intra=0 / bframes=6 / b_pyramid=2 / b_adapt=2 / b_bias=0 / direct=3 / weightb=1 / open_gop=0 / weightp=2 / keyint=230 / keyint_min=22 / scenecut=40 / intra_refresh=0 / rc_lookahead=60 / rc=2pass / mbtree=1 / bitrate=7000 / ratetol=1.0 / qcomp=0.60 / qpmin=0 / qpmax=69 / qpstep=4 / cplxblur=20.0 / qblur=0.5 / vbv_maxrate=50000 / vbv_bufsize=50000 / nal_hrd=none / filler=0 / ip_ratio=1.40 / aq=1:1.00
Language                                 : Chinese
Default                                  : Yes
Forced                                   : Yes

Audio #1
ID                                       : 3
Format                                   : AC-3
Format/Info                              : Audio Coding 3
Format settings, Endianness              : Big
Codec ID                                 : A_AC3
Duration                                 : 2 h 8 min
Bit rate mode                            : Constant
Bit rate                                 : 224 kb/s
Channel(s)                               : 2 channels
Channel positions                        : Front: L R
Sampling rate                            : 48.0 kHz
Frame rate                               : 31.250 FPS (1536 SPF)
Bit depth                                : 16 bits
Compression mode                         : Lossy
Stream size                              : 206 MiB (3%)
Language                                 : Czech
Service kind                             : Complete Main
Default                                  : Yes
Forced                                   : Yes

Audio #2
ID                                       : 4
Format                                   : AC-3
Format/Info                              : Audio Coding 3
Format settings, Endianness              : Big
Codec ID                                 : A_AC3
Duration                                 : 2 h 8 min
Bit rate mode                            : Constant
Bit rate                                 : 640 kb/s
Channel(s)                               : 6 channels
Channel positions                        : Front: L C R, Side: L R, LFE
Sampling rate                            : 48.0 kHz
Frame rate                               : 31.250 FPS (1536 SPF)
Bit depth                                : 16 bits
Compression mode                         : Lossy
Stream size                              : 589 MiB (8%)
Language                                 : Chinese
Service kind                             : Complete Main
Default                                  : No
Forced                                   : No

Text
ID                                       : 2
Format                                   : UTF-8
Codec ID                                 : S_TEXT/UTF8
Codec ID/Info                            : UTF-8 Plain Text
Language                                 : English
Default                                  : No
Forced                                   : No



  Kód:   Vybrat vše
http://fastshare.cz/8400577/goow-h7.mkv





********



God.of.War.2017.1080p.BluRay.x264.AC3.CZ
  Kód:   Vybrat vše
Info
Format                                   : Matroska
Format version                           : Version 4 / Version 2
File size                                : 14.1 GiB
Duration                                 : 2 h 8 min
Overall bit rate                         : 15.7 Mb/s
Encoded date                             : UTC 2017-12-25 02:21:58
Writing application                      : mkvmerge v6.4.1 ('Omega Point') built on Sep 16 2013 22:05:10
Writing library                          : libebml v1.3.0 + libmatroska v1.4.1

Video
ID                                       : 2
Format                                   : AVC
Format/Info                              : Advanced Video Codec
Format profile                           : High@L4.1
Format settings, CABAC                   : Yes
Format settings, RefFrames               : 5 frames
Codec ID                                 : V_MPEG4/ISO/AVC
Duration                                 : 2 h 8 min
Bit rate                                 : 14.0 Mb/s
Width                                    : 1 920 pixels
Height                                   : 804 pixels
Display aspect ratio                     : 2.40:1
Frame rate mode                          : Constant
Frame rate                               : 24.000 FPS
Color space                              : YUV
Chroma subsampling                       : 4:2:0
Bit depth                                : 8 bits
Scan type                                : Progressive
Bits/(Pixel*Frame)                       : 0.378
Stream size                              : 12.3 GiB (87%)
Writing library                          : x264 core 146 r2538 121396c
Encoding settings                        : cabac=1 / ref=5 / deblock=1:-3:-3 / analyse=0x3:0x133 / me=umh / subme=10 / psy=1 / psy_rd=1.00:0.00 / mixed_ref=1 / me_range=48 / chroma_me=1 / trellis=2 / 8x8dct=1 / cqm=0 / deadzone=21,11 / fast_pskip=0 / chroma_qp_offset=-2 / threads=12 / lookahead_threads=1 / sliced_threads=0 / nr=0 / decimate=0 / interlaced=0 / bluray_compat=0 / constrained_intra=0 / bframes=6 / b_pyramid=2 / b_adapt=2 / b_bias=0 / direct=3 / weightb=1 / open_gop=0 / weightp=2 / keyint=230 / keyint_min=22 / scenecut=40 / intra_refresh=0 / rc_lookahead=60 / rc=2pass / mbtree=1 / bitrate=14000 / ratetol=1.0 / qcomp=0.60 / qpmin=0 / qpmax=69 / qpstep=4 / cplxblur=20.0 / qblur=0.5 / vbv_maxrate=50000 / vbv_bufsize=50000 / nal_hrd=none / filler=0 / ip_ratio=1.40 / aq=1:1.00
Language                                 : Chinese
Default                                  : Yes
Forced                                   : Yes

Audio #1
ID                                       : 1
Format                                   : AC-3
Format/Info                              : Audio Coding 3
Format settings, Endianness              : Big
Codec ID                                 : A_AC3
Duration                                 : 2 h 8 min
Bit rate mode                            : Constant
Bit rate                                 : 224 kb/s
Channel(s)                               : 2 channels
Channel positions                        : Front: L R
Sampling rate                            : 48.0 kHz
Frame rate                               : 31.250 FPS (1536 SPF)
Bit depth                                : 16 bits
Compression mode                         : Lossy
Stream size                              : 206 MiB (1%)
Language                                 : Czech
Service kind                             : Complete Main
Default                                  : Yes
Forced                                   : Yes

Audio #2
ID                                       : 3
Format                                   : DTS
Format/Info                              : Digital Theater Systems
Mode                                     : 16
Format settings, Endianness              : Big
Codec ID                                 : A_DTS
Duration                                 : 2 h 8 min
Bit rate mode                            : Constant
Bit rate                                 : 1 509 kb/s
Channel(s)                               : 6 channels
Channel positions                        : Front: L C R, Side: L R, LFE
Sampling rate                            : 48.0 kHz
Frame rate                               : 93.750 FPS (512 SPF)
Bit depth                                : 24 bits
Compression mode                         : Lossy
Stream size                              : 1.36 GiB (10%)
Language                                 : Chinese
Default                                  : No
Forced                                   : No

Text
ID                                       : 4
Format                                   : UTF-8
Codec ID                                 : S_TEXT/UTF8
Codec ID/Info                            : UTF-8 Plain Text
Language                                 : English
Default                                  : No
Forced                                   : No



  Kód:   Vybrat vše
http://fastshare.cz/8400592/goow-h8.mkv

nebo

http://fastshare.cz/8400593/goow-h8.part1.rar
http://fastshare.cz/8400594/goow-h8.part2.rar
http://fastshare.cz/8400595/goow-h8.part3.rar
http://fastshare.cz/8400598/goow-h8.part4.rar
http://fastshare.cz/8400599/goow-h8.part5.rar
http://fastshare.cz/8400601/goow-h8.part6.rar
http://fastshare.cz/8400602/goow-h8.part7.rar
http://fastshare.cz/8400603/goow-h8.part8.rar


PASSWORD: NO
REUPLOAD NEDĚLÁM
Záznam pro opravu dat 3%
Naposledy upravil Stanley dne 06 dub 2018, 05:49, celkově upraveno 2
Důvod: Smazány mrtvé linky

V případě že ukazuje po stažení souboru z Fastshare u souboru 0MB je to způsobeno že to stahujete přes volné stahování, soubory jsou v pořádku a při stažení přes kredit je i velikost těchto souborů v pořádku.
<<

Sonty


Nováčik


Užívateľ

ID Užívateľa: 22750

Registrován: 27 led 2016, 20:09



Příspěvky: 76
(Zobraziť: Všetko /Témy)

Poďakoval som: 0 krát

Poďakovali my: 0 krát



Peňazí na ruke: 710.60



Karma: 0

Příspěvek 06 dub 2018, 01:11

Bůh války / God of War (2017)

Bůh války / Dang kou feng yun / God of War (2017)
Video/Zdroj: BluRay 1080p
Audio: CZ 2ch AC-3, EN 5.1ch DTS
Titulky: EN

Obrázek

  Kód:   Vybrat vše
https://www.csfd.cz/film/503195-can-sen-cchi-ti-kuang/prehled/
https://www.imdb.com/title/tt6083388/?ref_=nv_sr_7


Format : Matroska
Format version : Version 4 / Version 2
File size : 14.1 GiB
Duration : 2 h 8 min
Overall bit rate : 15.7 Mb/s

Video
Format : AVC
Format profile : High@L4.1
Duration : 2 h 8 min
Bit rate : 14.0 Mb/s
Width : 1 920 pixels
Height : 804 pixels
Display aspect ratio : 2.40:1
Frame rate mode : Constant
Frame rate : 24.000 FPS
Color space : YUV
Chroma subsampling : 4:2:0
Bit depth : 8 bits
Scan type : Progressive
Bits/(Pixel*Frame) : 0.378
Stream size : 12.3 GiB (87%)

Audio #1
Format : AC-3
Duration : 2 h 8 min
Bit rate mode : Constant
Bit rate : 224 kb/s
Channel(s) : 2 channels
Channel positions : Front: L R
Sampling rate : 48.0 kHz
Frame rate : 31.250 FPS (1536 SPF)
Bit depth : 16 bits
Compression mode : Lossy
Stream size : 206 MiB (1%)
Language : Czech

Audio #2
Format : DTS
Duration : 2 h 8 min
Bit rate mode : Constant
Bit rate : 1 509 kb/s
Channel(s) : 6 channels
Channel positions : Front: L C R, Side: L R, LFE
Sampling rate : 48.0 kHz
Frame rate : 93.750 FPS (512 SPF)
Bit depth : 24 bits
Compression mode : Lossy
Stream size : 1.36 GiB (10%)
Language : Chinese

Text
Format : UTF-8
Language : English
Default : No
Forced : No


  Kód:   Vybrat vše
http://fastshare.cz/8864071/gow.part1.rar
http://fastshare.cz/8864082/gow.part2.rar
http://fastshare.cz/8864136/gow.part3.rar
http://fastshare.cz/8859727/gow.part4.rar
http://fastshare.cz/8863944/gow.part5.rar
http://fastshare.cz/8864002/gow.part6.rar
http://fastshare.cz/8864061/gow.part7.rar
http://fastshare.cz/8796933/gow.part8.rar


Bez hesla. Balené bez kompresie. Pridaný záznam pre opravu dát 5%.




Zpět na HD filmy cz/sk



Kdo je online

Uživatelé procházející toto fórum: Žádní registrovaní uživatelé a 0 návštevníků

Powered by phpBB © 2000, 2002, 2005, 2007 phpBB Group.
Designed by ST Software.
Installed phpBB version: 3.0.12
Český překlad – phpBB.cz
Karma functions powered by Karma MOD © 2007, 2009 m157y
phpBB SEO
Protected by Anti-Spam ACP
TOPlist