Příspěvek 27 pro 2019, 12:53

Captain Marvel / Captain Marvel (2019)

Captain Marvel (2019)

Video/Zdroj: BluRay 1080p
Audio: CZ AC-3 5.1ch, EN E-AC-3 7.1/5.1ch, EN 2ch Commentary by Co-Directors/Writers Anna Boden & Ryan Fleck
Subtitles: CZ


Obrázek

CSFD / IMDB
  Kód:   Vybrat vše
https://www.csfd.cz/film/393330-captain-marvel/prehled/
https://www.imdb.com/title/tt4154664/?ref_=nv_sr_1?ref_=nv_sr_1


INFO
Format : Matroska
Format version : Version 2
File size : 16.5 GiB
Duration : 2h 3mn
Overall bit rate : 19.1 Mbps

Video
Format : AVC
Format profile : High@L4.1
Duration : 2h 3mn
Bit rate : 16.7 Mbps
Width : 1 920 pixels
Height : 804 pixels
Display aspect ratio : 2.40:1
Frame rate mode : Constant
Frame rate : 23.976 (24000/1001) fps
Color space : YUV
Chroma subsampling : 4:2:0
Bit depth : 8 bits
Scan type : Progressive
Bits/(Pixel*Frame) : 0.452
Stream size : 14.5 GiB (88%)

Audio #1
Format : AC-3
Duration : 2h 3mn
Bit rate mode : Constant
Bit rate : 640 Kbps
Channel(s) : 6 channels
Channel positions : Front: L C R, Side: L R, LFE
Sampling rate : 48.0 KHz
Frame rate : 31.250 fps (1536 spf)
Compression mode : Lossy
Stream size : 566 MiB (3%)
Language : Czech
Default : No
Forced : No

Audio #2
Format : E-AC-3
Duration : 2h 3mn
Bit rate mode : Constant
Bit rate : 500 bps
Channel(s) : 8 channels
Channel(s)_Original : 6 channels
Channel positions : Front: L C R, Side: L R, LFE
Sampling rate : 48.0 KHz
Frame rate : 187.500 fps (256 spf)
Compression mode : Lossy
Stream size : 1.33 GiB (8%)
Language : English
Default : Yes
Forced : No

Audio #3
Format : AC-3
Duration : 2h 3mn
Bit rate mode : Constant
Bit rate : 192 Kbps
Channel(s) : 2 channels
Channel positions : Front: L R
Sampling rate : 48.0 KHz
Frame rate : 31.250 fps (1536 spf)
Compression mode : Lossy
Stream size : 170 MiB (1%)
Title : Commentary by Co-Directors/Writers Anna Boden & Ryan Fleck
Language : English
Default : No
Forced : No

Text #1
Format : UTF-8
Language : Czech
Default : Yes
Forced : Yes

Text #2
Format : UTF-8
Language : Czech
Default : No
Forced : No


FASTSHARE
  Kód:   Vybrat vše
http://fastshare.cz/12810398/captain-marvel-2019-1080p-cz-en.mkv


  Kód:   Vybrat vše
http://fastshare.cz/12810338/cama19.part01.rar
http://fastshare.cz/12810340/cama19.part02.rar
http://fastshare.cz/12810347/cama19.part03.rar
http://fastshare.cz/12810348/cama19.part04.rar
http://fastshare.cz/12810352/cama19.part05.rar
http://fastshare.cz/12810356/cama19.part06.rar
http://fastshare.cz/12810359/cama19.part07.rar
http://fastshare.cz/12810363/cama19.part08.rar
http://fastshare.cz/12810366/cama19.part09.rar


Balené bez kompresie. Bez hesla. Pridaný záznam pre opravu dát 5%.