Příspěvek 26 pro 2017, 19:08

Čarovný les / Into the Woods (2014)

Čarovný les / Into the Woods / 2014


Into.the.Woods.2014.720p.BluRay.x264.AC3.SK
Into.the.Woods.2014.1080p.BluRay.x264.AC3.SK


Audio: SK (2.0),EN
Subtitles: CZ

Obrázek

  Kód:   Vybrat vše
Info:

https://www.csfd.cz/film/313398
http://www.imdb.com/title/tt2180411/


Into.the.Woods.2014.720p.BluRay.x264.AC3.SK
  Kód:   Vybrat vše
Info
Format                                   : Matroska
Format version                           : Version 4 / Version 2
File size                                : 5.66 GiB
Duration                                 : 2 h 4 min
Overall bit rate                         : 6 492 kb/s
Encoded date                             : UTC 2017-12-26 15:37:35
Writing application                      : mkvmerge v6.4.1 ('Omega Point') built on Sep 16 2013 22:05:10
Writing library                          : libebml v1.3.0 + libmatroska v1.4.1

Video
ID                                       : 1
Format                                   : AVC
Format/Info                              : Advanced Video Codec
Format profile                           : High@L4.1
Format settings, CABAC                   : Yes
Format settings, RefFrames               : 5 frames
Codec ID                                 : V_MPEG4/ISO/AVC
Duration                                 : 2 h 4 min
Bit rate                                 : 4 756 kb/s
Width                                    : 1 280 pixels
Height                                   : 536 pixels
Display aspect ratio                     : 2.40:1
Frame rate mode                          : Constant
Frame rate                               : 23.976 FPS
Color space                              : YUV
Chroma subsampling                       : 4:2:0
Bit depth                                : 8 bits
Scan type                                : Progressive
Bits/(Pixel*Frame)                       : 0.289
Stream size                              : 4.03 GiB (71%)
Writing library                          : x264 core 144 r2525 40bb568
Encoding settings                        : cabac=1 / ref=5 / deblock=1:0:0 / analyse=0x3:0x133 / me=umh / subme=7 / psy=1 / psy_rd=1.00:0.00 / mixed_ref=1 / me_range=16 / chroma_me=1 / trellis=1 / 8x8dct=1 / cqm=0 / deadzone=21,11 / fast_pskip=0 / chroma_qp_offset=-2 / threads=60 / lookahead_threads=4 / sliced_threads=0 / nr=0 / decimate=1 / interlaced=0 / bluray_compat=0 / constrained_intra=0 / bframes=3 / b_pyramid=2 / b_adapt=1 / b_bias=0 / direct=1 / weightb=1 / open_gop=0 / weightp=2 / keyint=250 / keyint_min=23 / scenecut=40 / intra_refresh=0 / rc_lookahead=40 / rc=2pass / mbtree=1 / bitrate=4756 / ratetol=1.0 / qcomp=0.60 / qpmin=0 / qpmax=69 / qpstep=4 / cplxblur=20.0 / qblur=0.5 / ip_ratio=1.40 / aq=1:1.00
Language                                 : English
Default                                  : Yes
Forced                                   : Yes

Audio #1
ID                                       : 2
Format                                   : DTS
Format/Info                              : Digital Theater Systems
Mode                                     : 16
Format settings, Endianness              : Big
Codec ID                                 : A_DTS
Duration                                 : 2 h 4 min
Bit rate mode                            : Constant
Bit rate                                 : 1 509 kb/s
Channel(s)                               : 6 channels
Channel positions                        : Front: L C R, Side: L R, LFE
Sampling rate                            : 48.0 kHz
Frame rate                               : 93.750 FPS (512 SPF)
Bit depth                                : 24 bits
Compression mode                         : Lossy
Stream size                              : 1.32 GiB (23%)
Language                                 : English
Default                                  : No
Forced                                   : No

Audio #2
ID                                       : 3
Format                                   : AC-3
Format/Info                              : Audio Coding 3
Format settings, Endianness              : Big
Codec ID                                 : A_AC3
Duration                                 : 2 h 4 min
Bit rate mode                            : Constant
Bit rate                                 : 224 kb/s
Channel(s)                               : 2 channels
Channel positions                        : Front: L R
Sampling rate                            : 48.0 kHz
Frame rate                               : 31.250 FPS (1536 SPF)
Bit depth                                : 16 bits
Compression mode                         : Lossy
Stream size                              : 200 MiB (3%)
Language                                 : Slovak
Service kind                             : Complete Main
Default                                  : Yes
Forced                                   : Yes

Text
ID                                       : 4
Format                                   : UTF-8
Codec ID                                 : S_TEXT/UTF8
Codec ID/Info                            : UTF-8 Plain Text
Language                                 : Czech
Default                                  : No
Forced                                   : No

Menu
00:00:00.000                             : en:00:00:00.000
00:16:24.275                             : en:00:16:24.275
00:18:02.164                             : en:00:18:02.164
00:21:30.998                             : en:00:21:30.998
00:26:37.846                             : en:00:26:37.846
00:28:28.415                             : en:00:28:28.415
00:30:08.765                             : en:00:30:08.765
00:32:50.969                             : en:00:32:50.969
00:33:31.885                             : en:00:33:31.885
00:37:18.027                             : en:00:37:18.027
00:40:44.984                             : en:00:40:44.984
00:42:27.128                             : en:00:42:27.128
00:46:13.604                             : en:00:46:13.604
00:48:53.180                             : en:00:48:53.180
00:54:39.109                             : en:00:54:39.109
00:57:50.926                             : en:00:57:50.926
01:00:02.808                             : en:01:00:02.808
01:03:33.977                             : en:01:03:33.977
01:08:32.859                             : en:01:08:32.859
01:10:14.335                             : en:01:10:14.335
01:14:47.525                             : en:01:14:47.525
01:21:45.567                             : en:01:21:45.567
01:24:00.827                             : en:01:24:00.827
01:29:15.267                             : en:01:29:15.267
01:33:29.437                             : en:01:33:29.437
01:36:32.996                             : en:01:36:32.996
01:40:53.422                             : en:01:40:53.422
01:43:59.150                             : en:01:43:59.150
01:45:49.885                             : en:01:45:49.885
01:49:38.947                             : en:01:49:38.947
01:53:44.985                             : en:01:53:44.985
01:57:23.828                             : en:01:57:23.828



  Kód:   Vybrat vše
http://fastshare.cz/8408683/intw-h7.mkv

nebo

http://fastshare.cz/8408686/intw-h7.part1.rar
http://fastshare.cz/8408689/intw-h7.part2.rar
http://fastshare.cz/8408692/intw-h7.part3.rar
kombi
https://rapidu.net/6722955282/intw_h7.part2.rar
https://rapidu.net/3722955253/intw_h7.part3.rar
https://rapidu.net/2522955246/intw_h7.part1.ra




********



Into.the.Woods.2014.1080p.BluRay.x264.AC3.SK
  Kód:   Vybrat vše
Info
Format                                   : Matroska
Format version                           : Version 4 / Version 2
File size                                : 8.94 GiB
Duration                                 : 2 h 4 min
Overall bit rate                         : 10.3 Mb/s
Encoded date                             : UTC 2017-12-26 15:41:07
Writing application                      : mkvmerge v6.4.1 ('Omega Point') built on Sep 16 2013 22:05:10
Writing library                          : libebml v1.3.0 + libmatroska v1.4.1

Video
ID                                       : 3
Format                                   : AVC
Format/Info                              : Advanced Video Codec
Format profile                           : High@L4.1
Format settings, CABAC                   : Yes
Format settings, RefFrames               : 5 frames
Codec ID                                 : V_MPEG4/ISO/AVC
Duration                                 : 2 h 4 min
Bit rate                                 : 8 522 kb/s
Width                                    : 1 920 pixels
Height                                   : 808 pixels
Display aspect ratio                     : 2.40:1
Frame rate mode                          : Constant
Frame rate                               : 23.976 FPS
Color space                              : YUV
Chroma subsampling                       : 4:2:0
Bit depth                                : 8 bits
Scan type                                : Progressive
Bits/(Pixel*Frame)                       : 0.229
Stream size                              : 7.25 GiB (81%)
Writing library                          : x264 core 144 r2525 40bb568
Encoding settings                        : cabac=1 / ref=5 / deblock=1:0:0 / analyse=0x3:0x133 / me=umh / subme=7 / psy=1 / psy_rd=1.00:0.00 / mixed_ref=1 / me_range=16 / chroma_me=1 / trellis=1 / 8x8dct=1 / cqm=0 / deadzone=21,11 / fast_pskip=0 / chroma_qp_offset=-2 / threads=60 / lookahead_threads=6 / sliced_threads=0 / nr=0 / decimate=1 / interlaced=0 / bluray_compat=0 / constrained_intra=0 / bframes=3 / b_pyramid=2 / b_adapt=1 / b_bias=0 / direct=1 / weightb=1 / open_gop=0 / weightp=2 / keyint=250 / keyint_min=23 / scenecut=40 / intra_refresh=0 / rc_lookahead=40 / rc=2pass / mbtree=1 / bitrate=8522 / ratetol=1.0 / qcomp=0.60 / qpmin=0 / qpmax=69 / qpstep=4 / cplxblur=20.0 / qblur=0.5 / ip_ratio=1.40 / aq=1:1.00
Language                                 : English
Default                                  : Yes
Forced                                   : Yes

Audio #1
ID                                       : 1
Format                                   : AC-3
Format/Info                              : Audio Coding 3
Format settings, Endianness              : Big
Codec ID                                 : A_AC3
Duration                                 : 2 h 4 min
Bit rate mode                            : Constant
Bit rate                                 : 224 kb/s
Channel(s)                               : 2 channels
Channel positions                        : Front: L R
Sampling rate                            : 48.0 kHz
Frame rate                               : 31.250 FPS (1536 SPF)
Bit depth                                : 16 bits
Compression mode                         : Lossy
Stream size                              : 200 MiB (2%)
Language                                 : Slovak
Service kind                             : Complete Main
Default                                  : Yes
Forced                                   : Yes

Audio #2
ID                                       : 4
Format                                   : DTS
Format/Info                              : Digital Theater Systems
Mode                                     : 16
Format settings, Endianness              : Big
Codec ID                                 : A_DTS
Duration                                 : 2 h 4 min
Bit rate mode                            : Constant
Bit rate                                 : 1 509 kb/s
Channel(s)                               : 6 channels
Channel positions                        : Front: L C R, Side: L R, LFE
Sampling rate                            : 48.0 kHz
Frame rate                               : 93.750 FPS (512 SPF)
Bit depth                                : 24 bits
Compression mode                         : Lossy
Stream size                              : 1.32 GiB (15%)
Language                                 : English
Default                                  : No
Forced                                   : No

Text
ID                                       : 2
Format                                   : UTF-8
Codec ID                                 : S_TEXT/UTF8
Codec ID/Info                            : UTF-8 Plain Text
Language                                 : Czech
Default                                  : No
Forced                                   : No

Menu
00:00:00.000                             : en:00:00:00.000
00:16:24.275                             : en:00:16:24.275
00:18:02.164                             : en:00:18:02.164
00:21:30.998                             : en:00:21:30.998
00:26:37.846                             : en:00:26:37.846
00:28:28.415                             : en:00:28:28.415
00:30:08.765                             : en:00:30:08.765
00:32:50.969                             : en:00:32:50.969
00:33:31.885                             : en:00:33:31.885
00:37:18.027                             : en:00:37:18.027
00:40:44.984                             : en:00:40:44.984
00:42:27.128                             : en:00:42:27.128
00:46:13.604                             : en:00:46:13.604
00:48:53.180                             : en:00:48:53.180
00:54:39.109                             : en:00:54:39.109
00:57:50.926                             : en:00:57:50.926
01:00:02.808                             : en:01:00:02.808
01:03:33.977                             : en:01:03:33.977
01:08:32.859                             : en:01:08:32.859
01:10:14.335                             : en:01:10:14.335
01:14:47.525                             : en:01:14:47.525
01:21:45.567                             : en:01:21:45.567
01:24:00.827                             : en:01:24:00.827
01:29:15.267                             : en:01:29:15.267
01:33:29.437                             : en:01:33:29.437
01:36:32.996                             : en:01:36:32.996
01:40:53.422                             : en:01:40:53.422
01:43:59.150                             : en:01:43:59.150
01:45:49.885                             : en:01:45:49.885
01:49:38.947                             : en:01:49:38.947
01:53:44.985                             : en:01:53:44.985
01:57:23.828                             : en:01:57:23.828


  Kód:   Vybrat vše
http://fastshare.cz/8408705/intw-h8.mkv

nebo
http://fastshare.cz/8408711/intw-h8.part1.rar
http://fastshare.cz/8408713/intw-h8.part2.rar
http://fastshare.cz/8408716/intw-h8.part3.rar
kombi
https://rapidu.net/4522955275/intw_h8.part1.rar
https://rapidu.net/1422955273/intw_h8.part2.rar
https://rapidu.net/9322955262/intw_h8.part3.rar



PASSWORD: NO
REUPLOAD NEDĚLÁM
Záznam pro opravu dat 3%
Naposledy upravil Stanley dne 26 pro 2017, 20:01, celkově upraveno 1
Důvod: Přidána ikonka serveru

V případě že ukazuje po stažení souboru z Fastshare u souboru 0MB je to způsobeno že to stahujete přes volné stahování, soubory jsou v pořádku a při stažení přes kredit je i velikost těchto souborů v pořádku.