Příspěvek 10 zář 2018, 16:19

Čierny panter / Black Panther (2018)

Black Panther (2018)
Video/Zdroj: BluRay 1080p
Audio: CZ 5.1ch AC-3, EN 5.1ch AC-3
Titulky: CZ, EN

Obrázek

CSFD / IMDB
  Kód:   Vybrat vše
https://www.csfd.cz/film/331877-black-panther/prehled/
https://www.imdb.com/title/tt1825683/?ref_=nv_sr_1


INFO
Format : Matroska
Format version : Version 4 / Version 2
File size : 10.7 GiB
Duration : 2 h 14 min
Overall bit rate : 11.4 Mb/s

Video
Format : AVC
Format profile : High@L4.1
Duration : 2 h 14 min
Bit rate : 10.1 Mb/s
Width : 1 920 pixels
Height : 808 pixels
Display aspect ratio : 2.40:1
Frame rate mode : Constant
Frame rate : 23.976 (24000/1001) FPS
Color space : YUV
Chroma subsampling : 4:2:0
Bit depth : 8 bits
Scan type : Progressive
Bits/(Pixel*Frame) : 0.272
Stream size : 9.30 GiB (87%)

Audio #1
Format : AC-3
Duration : 2 h 14 min
Bit rate mode : Constant
Bit rate : 640 kb/s
Channel(s) : 6 channels
Channel positions : Front: L C R, Side: L R, LFE
Sampling rate : 48.0 kHz
Frame rate : 31.250 FPS (1536 SPF)
Bit depth : 16 bits
Compression mode : Lossy
Stream size : 616 MiB (6%)
Language : Czech
Default : Yes
Forced : Yes

Audio #2
Format : AC-3
Duration : 2 h 14 min
Bit rate mode : Constant
Bit rate : 640 kb/s
Channel(s) : 6 channels
Channel positions : Front: L C R, Side: L R, LFE
Sampling rate : 48.0 kHz
Frame rate : 31.250 FPS (1536 SPF)
Bit depth : 16 bits
Compression mode : Lossy
Stream size : 616 MiB (6%)
Language : English
Service kind : Complete Main
Default : No
Forced : No

Text #1
Format : UTF-8
Language : Czech
Default : Yes
Forced : Yes

Text #2
Format : UTF-8
Language : Czech
Default : No
Forced : No

Text #3
Format : UTF-8
Language : English
Default : No
Forced : No

Text #4
Format : UTF-8
Language : English
Default : No
Forced : No


Fastshare
  Kód:   Vybrat vše
http://fastshare.cz/10410921/bp8.part1.rar
http://fastshare.cz/10410927/bp8.part2.rar
http://fastshare.cz/10410934/bp8.part3.rar
http://fastshare.cz/10410941/bp8.part4.rar
http://fastshare.cz/10410949/bp8.part5.rar
http://fastshare.cz/10410959/bp8.part6.rar


Bez hesla. Balené bez kompresie. Pridaný záznam pre opravu dát 5%.