Příspěvek 12 lis 2018, 13:21

Clementine / Clementine (2004)

Clementine cz

Obrázek

info

  Kód:   Vybrat vše
https://www.csfd.cz/film/200014-clementine/prehled/


Policista Kim (Jun Lee) je propuštěn pro své brutální způsoby vyšetřování. Podsvětí ho najímá jako gladiátora do ilegálních zápasů v aréně. Jednoho dne se rozhodne ukončit svoji kariéru, protože se chce postarat o svoji dcerku Sa Rang. Gangsteři ji ale unesou a Kim se musí vrátit do ringu, aby jí vybojoval svobodu. Ocitá se tak tváří v tvář "Králi ringu" Jackovi Millerovi (Steven Seagal), muži, který ještě nikdy neprohrál.(oficiální text distributora)


kvalita

General
Complete name : E:\Clementine cz.avi
Format : AVI
Format/Info : Audio Video Interleave
File size : 1.01 GiB
Duration : 1h 40mn
Overall bit rate mode : Variable
Overall bit rate : 1 439 Kbps
Writing application : VirtualDubMod 1.5.10.3 | http://www.virtualdub-fr.org || (build 2550/release)
Writing library : VirtualDubMod build 2550/release

Video
ID : 0
Format : AVC
Format/Info : Advanced Video Codec
Format profile : High@L4.1
Format settings, CABAC : Yes
Format settings, ReFrames : 4 frames
Codec ID : h264
Duration : 1h 40mn
Bit rate : 1 182 Kbps
Width : 720 pixels
Height : 400 pixels
Display aspect ratio : 16:9
Frame rate : 29.970 fps
Color space : YUV
Chroma subsampling : 4:2:0
Bit depth : 8 bits
Scan type : Progressive
Bits/(Pixel*Frame) : 0.137
Stream size : 846 MiB (82%)
Writing library : x264 core 146 r2538 121396c
Encoding settings : cabac=1 / ref=3 / deblock=1:-1:-1 / analyse=0x3:0x113 / me=hex / subme=7 / psy=1 / psy_rd=1.00:0.15 / mixed_ref=1 / me_range=16 / chroma_me=1 / trellis=1 / 8x8dct=1 / cqm=0 / deadzone=21,11 / fast_pskip=1 / chroma_qp_offset=-3 / threads=12 / lookahead_threads=2 / sliced_threads=0 / nr=0 / decimate=1 / interlaced=0 / bluray_compat=0 / constrained_intra=0 / bframes=3 / b_pyramid=2 / b_adapt=1 / b_bias=0 / direct=1 / weightb=1 / open_gop=0 / weightp=2 / keyint=250 / keyint_min=25 / scenecut=40 / intra_refresh=0 / rc_lookahead=40 / rc=2pass / mbtree=1 / bitrate=1182 / ratetol=1.0 / qcomp=0.60 / qpmin=0 / qpmax=69 / qpstep=4 / cplxblur=20.0 / qblur=0.5 / ip_ratio=1.40 / aq=1:1.00

Audio
ID : 1
Format : MPEG Audio
Format version : Version 1
Format profile : Layer 3
Codec ID : 55
Codec ID/Hint : MP3
Duration : 1h 40mn
Bit rate mode : Variable
Bit rate : 243 Kbps
Minimum bit rate : 32.0 Kbps
Channel(s) : 2 channels
Sampling rate : 48.0 KHz
Compression mode : Lossy
Stream size : 174 MiB (17%)
Alignment : Aligned on interleaves
Interleave, duration : 24 ms (0.72 video frame)
Interleave, preload duratio : 75 ms
Writing library : LAME3.99r
Encoding settings : -m s -V 0 -q 0 -lowpass 24 --vbr-new -b 32


dowload

  Kód:   Vybrat vše
http://fastshare.cz/10765052/clementine-cz.part1.rar
http://fastshare.cz/10765289/clementine-cz.part2.rar
http://fastshare.cz/10765294/clementine-cz.part3.rar
Naposledy upravil Stanley dne 12 lis 2018, 19:07, celkově upraveno 1
Důvod: Oprava názvu tématu