Loading...
Oznam

:welcome:



warpark-Forum


Mission: Impossible - Fallout / Mission: Impossib ... (2018)

Moderátor: drobec

Pravidla fóra
- Všechny linky této kategorie musí být v CODE,obrázky , screeny v IMG
- Používejte tlačítko HLEDÁM, abyste nezaložili duplicitní téma
- Název témy musi obsahovat název filmu,pokud je s dabingem,první český název/originální název (rok výroby)


Bostonský případ / Boston Strangler, The (1968)

[b][i]- V příspěvku musi být uvedené info o uploadu,cover,kvalita příspěvku,dále odkaz na csfd
- NEZAKLÁDEJTE DUPLICITNÍ TÉMATA !!!
- V hesle od RARu je zakázané použít název nebo link jiného warez fora !
- Příspěvky dávejte do správných kategorií
- Prosby o reupload zasílejte autorovi příspěvku daného filmu formou soukromé zprávy
- Nefunkční linky a příspěvky v rozporu s pravidly hlaste Moderátorům pomocí tlačítka
" HLEDAT "
- Příspěvky,které nebudou podle pravidiel budou Moderátorem upravené ,přesunuté do smeti nebo vymazané
- Žádný SPAM !
<<

warez18


Nováčik


Užívateľ

ID Užívateľa: 23688

Registrován: 02 říj 2018, 17:41



Příspěvky: 55
(Zobraziť: Všetko /Témy)

Poďakoval som: 0 krát

Poďakovali my: 0 krát



Peňazí na ruke: 775.05



Karma: 0

Příspěvek 18 lis 2018, 14:29

Mission: Impossible - Fallout / Mission: Impossib ... (2018)

Mission: Impossible - Fallout (2018)

Jazyk: Czech
Rok vydání: USA, 2018
Délka: 147 min
Žánr: Akční / Dobrodružný / Thriller


Obrázek

  Kód:   Vybrat vše
https://www.csfd.cz/film/58782


  Kód:   Vybrat vše
Format            : Matroska at 1 576 kb/s
Length            : 1,62 GiB for 2 h 27 min 25 s 280 ms

Video #0          : AVC at 1 383 kb/s
Aspect            : 720 x 380 (1.895) at 23.976 fps

Audio #0          : AC-3 at 192 kb/s
Infos             : 2 kanály, 48,0 kHz


  Kód:   Vybrat vše
http://fastshare.cz/10795220/mission.impossible.fallout.2018.cz.dab.mkv
Naposledy upravil Stanley dne 18 lis 2018, 18:04, celkově upraveno 1
Důvod: Oprava názvu tématu
<<

ponte753


Začiatočník


Užívateľ

ID Užívateľa: 23695

Registrován: 12 říj 2018, 23:04



Příspěvky: 138
(Zobraziť: Všetko /Témy)

Poďakoval som: 0 krát

Poďakovali my: 0 krát



Peňazí na ruke: 1,866.45



Karma: 0

Příspěvek 18 lis 2018, 14:55

Mission: Impossible - Fallout / Mission: Impossib ... (2018)

ponte píše:Obrázek

Mission: Impossible - Fallout (2018)


Akční / Dobrodružný / Thriller

USA, 2018, 147 min

Režie: Christopher McQuarrie
Scénář: Christopher McQuarrie
Kamera: Rob Hardy
Hudba: Lorne Balfe
Hrají: Tom Cruise, Henry Cavill, Rebecca Ferguson, Simon Pegg, Ving Rhames, Vanessa Kirby, Alec Baldwin, Sean Harris, Angela Bassett, Michelle Monaghan, Wes Bentley, Frederick Schmidt, Kristoffer Joner, Joey Ansah, Caspar Phillipson, Velibor Topic, Gordon Alexander, Alix Bénézech, Russ Bain, Grahame Fox

Ethan Hunt si vždycky vybíral nesplnitelné mise. Pokaždé v nich uspěl, okolnostem navzdory. Na začátku tohoto příběhu však čelí úplně nové situaci. Něco se pokazilo, past nesklapla a vinou jeho selhání se ocitnou ve smrtelném ohrožení vybraná světová velkoměsta. Ethan je přesvědčen, že pouze on se svým týmem dokáže tragickou chybu napravit. Je však sám, kdo si to myslí. Do hry vstupují další hráči, kteří mu možná pomáhají, ale možná také sledují své vlastní zájmy, které jsou v rozporu s těmi Ethanovými. Rozdělení na kladné a záporné hrdiny nebude tentokrát vůbec jednoduché. V pozadí navíc čím dál rychleji utíká čas vstříc momentu, který dramaticky změní mapu světa.

  Kód:   Vybrat vše
https://www.imdb.com/title/tt4912910/?ref_=nv_sr_1[/imdb

https://www.csfd.cz/film/58782-mission-impossible-fallout/prehled/


Spoiler:
Format : Matroska
Format version : Version 4
File size : 3.42 GiB
Duration : 2 h 27 min
Overall bit rate : 3 319 kb/s

Video
Format : AVC
Format/Info : Advanced Video Codec
Format profile : High@L4.1
Format settings : CABAC / 9 Ref Frames
Format settings, CABAC : Yes
Format settings, ReFrames : 9 frames
Codec ID : V_MPEG4/ISO/AVC
Duration : 2 h 27 min
Bit rate : 3 194 kb/s
Width : 1 280 pixels
Height : 676 pixels

Display aspect ratio : 1.893
Frame rate mode : Constant
Frame rate : 23.976 (24000/1001) FPS

Audio
Format : AAC LC
Format/Info : Advanced Audio Codec Low Complexity
Codec ID : A_AAC-2
Duration : 2 h 27 min
Bit rate : 123 kb/s
Channel(s) : 2 channels
Channel layout : L R
Sampling rate : 48.0 kHz
Frame rate : 46.875 FPS (1024 SPF)
Compression mode : Lossy
Delay relative to video : 42 ms
Stream size : 129 MiB (4%)
Language : Czech

Menu
00:00:00.000 : en:00:00:00.000
00:10:37.011 : en:00:10:37.011
00:17:11.405 : en:00:17:11.405
00:26:57.241 : en:00:26:57.241
00:35:56.654 : en:00:35:56.654
00:49:18.414 : en:00:49:18.414
01:00:00.806 : en:01:00:00.806
01:10:23.719 : en:01:10:23.719
01:17:07.289 : en:01:17:07.289
01:28:28.470 : en:01:28:28.470
01:39:09.652 : en:01:39:09.652
01:46:26.547 : en:01:46:26.547
01:55:45.564 : en:01:55:45.564
02:03:10.592 : en:02:03:10.592
02:14:00.908 : en:02:14:00.908
02:19:48.088 : en:02:19:48.088


Obrázek

  Kód:   Vybrat vše
http://www.fastshare.cz/10795322/mission.impossible.fallout.2018.hd.bluray.aac2.0.x264.cz-dabing.mkv


Mission.Impossible.Fallout.2018.BDRip.x264.CZ-Dabing

Format : Matroska
Format version : Version 4
File size : 1.62 GiB
Duration : 2 h 27 min
Overall bit rate : 1 576 kb/s

Duration : 2 h 27 min
Bit rate : 1 383 kb/s
Width : 720 pixels
Height : 380 pixels

Display aspect ratio : 1.895
Frame rate mode : Constant
Frame rate : 23.976 (24000/1001) FPS

Obrázek

  Kód:   Vybrat vše
http://www.fastshare.cz/10795678/mission.impossible.fallout.2018.bdrip.x264.cz-dabing.mkv
Naposledy upravil Stanley dne 18 lis 2018, 18:04, celkově upraveno 1
Důvod: Oprava názvu tématu
<<

Sonty


Amatér


Užívateľ

ID Užívateľa: 22750

Registrován: 27 led 2016, 20:09



Příspěvky: 219
(Zobraziť: Všetko /Témy)

Poďakoval som: 0 krát

Poďakovali my: 0 krát



Peňazí na ruke: 2,225.95



Karma: 0

Příspěvek 26 lis 2018, 15:57

Mission: Impossible - Fallout / Mission: Impossib ... (2018)

Mission: Impossible - Fallout (2018)

Video/Zdroj: BDRip
Audio: CZ AC-3 2ch
Titulky: CZ, CZ forced


Obrázek

CSFD / IMDB
  Kód:   Vybrat vše
https://www.csfd.cz/film/58782-mission-impossible-fallout/prehled/
https://www.imdb.com/title/tt4912910/?ref_=nv_sr_1


INFO
Format : Matroska
Format version : Version 2
File size : 1.62 GiB
Duration : 2h 27mn
Overall bit rate : 1 576 Kbps

Video
Format : AVC
Format profile : High@L4.1
Duration : 2h 27mn
Bit rate : 1 383 Kbps
Width : 720 pixels
Height : 380 pixels
Display aspect ratio : 1.895
Frame rate mode : Constant
Frame rate : 23.976 (24000/1001) fps
Color space : YUV
Chroma subsampling : 4:2:0
Bit depth : 8 bits
Scan type : Progressive
Bits/(Pixel*Frame) : 0.211
Stream size : 1.42 GiB (88%)

Audio
Format : AC-3
Duration : 2h 27mn
Bit rate mode : Constant
Bit rate : 192 Kbps
Channel(s) : 2 channels
Channel positions : Front: L R
Sampling rate : 48.0 KHz
Frame rate : 31.250 fps (1536 spf)
Compression mode : Lossy
Stream size : 202 MiB (12%)
Language : Czech
Default : Yes
Forced : No

Text #1
Format : UTF-8
Language : Czech
Default : Yes
Forced : Yes

Text #2
Format : ASS
Language : Czech
Default : No
Forced : Yes


FASTSHARE

  Kód:   Vybrat vše
http://fastshare.cz/10810752/mission-impossible-fallout-2018-cz.mkv
<<

hunter2222


User


Užívateľ

ID Užívateľa: 3459

Registrován: 27 črc 2009, 16:12



Příspěvky: 34
(Zobraziť: Všetko /Témy)

Poďakoval som: 0 krát

Poďakovali my: 0 krát



Peňazí na ruke: 350.15



Karma: 0

Příspěvek 12 led 2019, 15:09

Mission: Impossible - Fallout / Mission: Impossib ... (2018)

Mission.Impossible.Fallout.2018.1080p.BluRay.CZ.dabing

Obrázek
  Kód:   Vybrat vše
https://www.csfd.cz/film/58782-mission-impossible-fallout

Velikost: 2,8 GB / TOP KVALITA

1920 x 1012 - 2 500 kb/s - AVC - 23.976 fps

AC-3 - 224 kb/s - 2 channels - 48.0 kHz

  Kód:   Vybrat vše
fastshare.cz/11055058/mission-impossible-fallout-2018-cz-dabing-novinka-akcni-dobrodruzny-thriller-dnes-pridane-novinky.mkv?ref=569222




Zpět na Filmy s dabingom



Kdo je online

Uživatelé procházející toto fórum: Žádní registrovaní uživatelé a 0 návštevníků

Powered by phpBB © 2000, 2002, 2005, 2007 phpBB Group.
Designed by ST Software.
Installed phpBB version: 3.0.12
Český překlad – phpBB.cz
Karma functions powered by Karma MOD © 2007, 2009 m157y
phpBB SEO
Protected by Anti-Spam ACP
TOPlist