Příspěvek 16 črc 2018, 15:24

Dredd / Dredd (2012)

Dredd (2012)
Video/Zdroj: BluRay 1080p
Audio: CZ AC-3 5.1ch, EN DTS 5.1ch
Titulky: CZ

Obrázek

  Kód:   Vybrat vše
http://www.csfd.cz/film/266803-dredd/
https://www.imdb.com/title/tt1343727/?ref_=fn_al_tt_1


Format : Matroska
Format version : Version 2
File size : 11.8 GiB
Duration : 1h 35mn
Overall bit rate : 17.6 Mbps

Video
Format : AVC
Format profile : High@L4.1
Duration : 1h 35mn
Bit rate : 15.7 Mbps
Width : 1 920 pixels
Height : 800 pixels
Display aspect ratio : 2.40:1
Frame rate mode : Constant
Frame rate : 23.976 fps
Color space : YUV
Chroma subsampling : 4:2:0
Bit depth : 8 bits
Scan type : Progressive
Bits/(Pixel*Frame) : 0.425
Stream size : 10.2 GiB (87%)

Audio #1
Format : AC-3
Duration : 1h 35mn
Bit rate mode : Constant
Bit rate : 448 Kbps
Channel(s) : 6 channels
Channel positions : Front: L C R, Side: L R, LFE
Sampling rate : 48.0 KHz
Bit depth : 16 bits
Compression mode : Lossy
Stream size : 307 MiB (3%)
Language : Czech

Audio #2
Format : DTS
Duration : 1h 35mn
Bit rate mode : Constant
Bit rate : 1 509 Kbps
Channel(s) : 6 channels
Channel positions : Front: L C R, Side: L R, LFE
Sampling rate : 48.0 KHz
Bit depth : 24 bits
Compression mode : Lossy
Stream size : 1.01 GiB (9%)
Language : English

Text
Format : UTF-8
Language : Czech


Fastshare
  Kód:   Vybrat vše
http://fastshare.cz/10055672/dd12.part1.rar
http://fastshare.cz/10055685/dd12.part2.rar
http://fastshare.cz/10055697/dd12.part3.rar
http://fastshare.cz/10055705/dd12.part4.rar
http://fastshare.cz/10055712/dd12.part5.rar
http://fastshare.cz/10055721/dd12.part6.rar
http://fastshare.cz/10055725/dd12.part7.rar


Balené bez kompresie. Bez hesla. Pridaný záznam pre opravu dát 5%.
Naposledy upravil Stanley dne 16 črc 2018, 20:45, celkově upraveno 1
Důvod: Oprava názvu tématu