Příspěvek 22 srp 2018, 21:41

Dubček (2018)

Dubcek.2018.1080p.WEB-DL.AAC.h264-FCtU.mp4


Cover:

Obrázek

Info:

Jazyk: Český
Titulky: -
Csfd:
  Kód:   Vybrat vše
https://www.csfd.cz/film/597559-dubcek/prehled/

Info:
  Kód:   Vybrat vše
General
Complete name: Dubcek.2018.1080p.WEB-DL.AAC.h264-FCtU.mp4
Format: MPEG-4
Format profile: Base Media
Codec ID: isom
File size: 3.67 GiB
Duration: 1h 25mn
Overall bit rate mode: Constant
Overall bit rate: 6 129 Kbps
Writing application: Lavf58.12.100

Video
ID: 1
Format: AVC
Format/Info: Advanced Video Codec
Format profile: Main@L4
Format settings, CABAC: Yes
Format settings, ReFrames: 2 frames
Format settings, GOP: M=4, N=50
Codec ID: avc1
Codec ID/Info: Advanced Video Coding
Duration: 1h 25mn
Bit rate mode: Constant
Bit rate: 6 000 Kbps
Width: 1 920 pixels
Height: 1 080 pixels
Display aspect ratio: 16:9
Frame rate mode: Constant
Frame rate: 25.000 fps
Color space: YUV
Chroma subsampling: 4:2:0
Bit depth: 8 bits
Scan type: Progressive
Bits/(Pixel*Frame): 0.116
Stream size: 3.59 GiB (98%)

Audio
ID: 2
Format: AAC
Format/Info: Advanced Audio Codec
Format profile: LC
Codec ID: 40
Duration: 1h 25mn
Bit rate mode: Constant
Bit rate: 125 Kbps
Channel(s): 2 channels
Channel positions: Front: L R
Sampling rate: 48.0 KHz
Compression mode: Lossy
Stream size: 76.9 MiB (2%)
Language: Czech




Download:
  Kód:   Vybrat vše
http://www.fastshare.cz/10290601/dubcek.2018.1080.mp4
Naposledy upravil Stanley dne 23 srp 2018, 05:48, celkově upraveno 1
Důvod: Oprava názvu tématu