Příspěvek 11 led 2019, 20:57

Evil Dead / Evil Dead (2013)

Evil Dead (2013)

EXTENDED / Predĺžená verzia
Video/Zdroj: BDRip 1080p
Audio: EN DTS 5.1ch
Titulky: CZ, EN, DE


Obrázek

CSFD / IMDB
  Kód:   Vybrat vše
https://www.csfd.cz/film/267976-lesni-duch/prehled/
https://www.imdb.com/title/tt1288558/?ref_=nv_sr_8


INFO
Format : Matroska
Format version : Version 4 / Version 2
File size : 4.39 GiB
Duration : 1 h 36 min
Overall bit rate : 6 511 kb/s

Video
Format : AVC
Format profile : High@L4.1
Duration : 1 h 36 min
Bit rate : 5 000 kb/s
Width : 1 920 pixels
Height : 808 pixels
Display aspect ratio : 2.40:1
Frame rate mode : Constant
Frame rate : 23.976 (24000/1001) FPS
Color space : YUV
Chroma subsampling : 4:2:0
Bit depth : 8 bits
Scan type : Progressive
Bits/(Pixel*Frame) : 0.134
Stream size : 3.37 GiB (77%)

Audio
Format : DTS
Duration : 1 h 36 min
Bit rate mode : Constant
Bit rate : 1 509 kb/s
Channel(s) : 6 channels
Channel positions : Front: L C R, Side: L R, LFE
Sampling rate : 48.0 kHz
Frame rate : 93.750 FPS (512 SPF)
Bit depth : 24 bits
Compression mode : Lossy
Stream size : 1.02 GiB (23%)
Language : English
Default : Yes
Forced : No

Text #1
Format : ASS
Language : English
Default : No
Forced : No

Text #2
Format : ASS
Language : German
Default : No
Forced : No

Text #3
Format : UTF-8
Language : Czech
Default : Yes
Forced : No


FASTSHARE

  Kód:   Vybrat vše
http://fastshare.cz/11025116/lesni-duch-evil-dead-2013-extended-1080p-cz-en-bluray.mkv
Naposledy upravil Stanley dne 12 led 2019, 07:20, celkově upraveno 1
Důvod: Oprava názvu tématu