Příspěvek 06 led 2016, 16:17

Female Prison Guards

Female Prison Guards 2015 XXX WEB-DL

  Kód:   Vybrat vše
http://imgcandy.net/img-568d1700213ba_d53ilojrxi6yqdz9t.jpg.html
http://imgcandy.net/upload/small/2016/01/06/568d16ffb7adc.jpg


  Kód:   Vybrat vše
http://fastshare.cz/5473236/female.prison.guards.mp4


  Kód:   Vybrat vše
General

Format                           : MPEG-4
Format profile                   : Base Media
Codec ID                         : isom
File size                        : 6.04 GiB
Duration                         : 2h 5mn
Overall bit rate                 : 6 885 Kbps
Encoded date                     : UTC 2015-12-25 09:18:01
Tagged date                      : UTC 2015-12-25 09:18:01

Video
ID                               : 1
Format                           : AVC
Format/Info                      : Advanced Video Codec
Format profile                   : High@L4.0
Format settings, CABAC           : No
Format settings, ReFrames        : 1 frame
Codec ID                         : avc1
Codec ID/Info                    : Advanced Video Coding
Duration                         : 2h 5mn
Bit rate mode                    : Variable
Bit rate                         : 6 800 Kbps
Maximum bit rate                 : 23.7 Mbps
Width                            : 1 920 pixels
Height                           : 1 080 pixels
Display aspect ratio             : 16:9
Frame rate mode                  : Constant
Frame rate                       : 25.000 fps
Color space                      : YUV
Chroma subsampling               : 4:2:0
Bit depth                        : 8 bits
Scan type                        : Progressive
Bits/(Pixel*Frame)               : 0.131
Stream size                      : 5.93 GiB (98%)
Writing library                  : x264 core 116 r2019 9cc407d

Audio
ID                               : 2
Format                           : AAC
Format/Info                      : Advanced Audio Codec
Format profile                   : LC
Codec ID                         : 40
Duration                         : 2h 5mn
Bit rate mode                    : Variable
Bit rate                         : 119 Kbps
Maximum bit rate                 : 177 Kbps
Channel(s)                       : 2 channels
Channel positions                : Front: L R
Sampling rate                    : 44.1 KHz
Compression mode                 : Lossy
Stream size                      : 107 MiB (2%)
Encoded date                     : UTC 2015-12-25 09:28:28
Tagged date                      : UTC 2015-12-25 09:28:55