Loading...
Oznam

:welcome:



warpark-Forum


Jigsaw / Jigsaw (2017)

Moderátor: drobec

Pravidla fóra
- Všechny linky této kategorie musí být v CODE, obrázky , screeny v IMG
- Používejte tlačítko HLEDÁM, abyste nezaložili duplicitní téma
- Název témy musi obsahovat originální název filmu/český název (rok výroby)

Boston Strangler, The / Bostonský případ (1968)

- V příspěvku musi být uvedené info o uploadu,cover,kvalita příspěvku,


Pokud nevíte,jak zjistit kvalitu příspěvku,použijte tento prográmek

  Kód:   Vybrat vše
http://www.stahuj.centrum.cz/multimedia/ostatni/mediainfo/



info o titulcích - zda jsou součástí,příp,.odkaz na titulky,
dále odkaz na csfd
- NEZAKLÁDEJTE DUPLICITNÍ TÉMATA !!!
- V hesle od RARu je zakázané použít název nebo link jiného warez fora !
- Příspěvky dávejte do správných kategorií
- Prosby o reupload zasílejte autorovi příspěvku daného filmu formou soukromé zprávy
- Nefunkční linky a příspěvky v rozporu s pravidly hlaste Moderátorům pomocí tlačítka " Obrázek "

- Příspěvky,které nebudou podle pravidel budou
Moderátorem upravené ,přesunuté do smeti nebo vymazané
- Žádný SPAM !

PROSÍM VŠECHNY UPLOADERY,ABY PŘI VLOŽENÍ PŘÍSPĚVKU POUŽÍVALI SPRÁVNOU IKONKU
SERVERU,NA KTERÉM JE PŘÍSPĚVEK ULOŽEN,USNADNÍTE NÁM HODNĚ PRÁCE.DĚKUJEME
<<

freesby89


Pokročilý


Užívateľ

ID Užívateľa: 23506

Registrován: 12 pro 2017, 15:52



Příspěvky: 425
(Zobraziť: Všetko /Témy)

Poďakoval som: 0 krát

Poďakovali my: 1 krát



Peňazí na ruke: 5,428.30



Karma: 0

Příspěvek 10 led 2018, 02:10

Jigsaw / Jigsaw (2017)

Jigsaw.2017.HDRip.XviD.AC3-EVO.avi


Cover:

Obrázek

Info:

Jazyk: Eng
Titulky: caka sa titulky.com
Csfd:
  Kód:   Vybrat vše
https://www.csfd.cz/film/367943-jigsaw/komentare/

Info:
Complete name: Jigsaw.2017.HDRip.XviD.AC3-EVO.avi
Format: AVI
Format/Info: Audio Video Interleave
File size: 1.33 GiB
Duration: 1 h 31 min
Overall bit rate: 2 071 kb/s
Writing library: VirtualDub build 32593/release

Video
ID: 0
Format: MPEG-4 Visual
Format profile: Advanced Simple@L5
Format settings: BVOP2
Format settings, BVOP: 2
Format settings, QPel: No
Format settings, GMC: No warppoints
Format settings, Matrix: Default (H.263)
Muxing mode: Packed bitstream
Codec ID: XVID
Codec ID/Hint: XviD
Duration: 1 h 31 min
Bit rate: 1 677 kb/s
Width: 720 pixels
Height: 304 pixels
Display aspect ratio: 2.35:1
Frame rate: 23.976 (24000/1001) FPS
Color space: YUV
Chroma subsampling: 4:2:0
Bit depth: 8 bits
Scan type: Progressive
Compression mode: Lossy
Bits/(Pixel*Frame): 0.320
Stream size: 1.08 GiB (81%)
Writing library: XviD 66

Audio
ID: 1
Format: AC-3
Format/Info: Audio Coding 3
Codec ID: 2000
Duration: 1 h 31 min
Bit rate mode: Constant
Bit rate: 384 kb/s
Channel(s): 6 channels
Channel positions: Front: L C R, Side: L R, LFE
Sampling rate: 48.0 kHz
Frame rate: 31.250 FPS (1536 SPF)
Bit depth: 16 bits
Compression mode: Lossy
Stream size: 253 MiB (19%)
Alignment: Aligned on interleaves
Interleave, duration: 42 ms (1.00 video frame)
Interleave, preload duration: 512 ms
Service kind: Complete Main




Download:
  Kód:   Vybrat vše
http://fastshare.cz/8488394/jigsaw.2017.hdrip.xvid.ac3-evo.avi


Jigsaw 2017 1080p Web DL x264 AC3 TiTAN[EtHD].mkv


Info:
Jigsaw 2017 1080p Web DL x264 AC3 TiTAN[EtHD]\Jigsaw 2017 1080p Web DL x264 AC3 TiTAN[EtHD].mkv
Format: Matroska
Format version: Version 4 / Version 2
File size: 3.20 GiB
Duration: 1h 31mn
Overall bit rate: 4 980 Kbps
Encoded date: UTC 2018-01-09 03:53:39
Writing application: mkvmerge v19.0.0 ('Brave Captain';) 64-bit
Writing library: libebml v1.3.5 + libmatroska v1.4.8

Video
ID: 1
Format: AVC
Format/Info: Advanced Video Codec
Format profile: High@L4
Format settings, CABAC: Yes
Format settings, ReFrames: 5 frames
Codec ID: V_MPEG4/ISO/AVC
Duration: 1h 31mn
Bit rate: 4 594 Kbps
Width: 1 912 pixels
Height: 796 pixels
Display aspect ratio: 2.40:1
Frame rate mode: Constant
Frame rate: 23.976 (24000/1001) fps
Color space: YUV
Chroma subsampling: 4:2:0
Bit depth: 8 bits
Scan type: Progressive
Bits/(Pixel*Frame): 0.126
Stream size: 2.95 GiB (92%)
Language: English
Default: Yes
Forced: No
Color range: Limited
Color primaries: BT.709
Transfer characteristics: BT.709
Matrix coefficients: BT.709

Audio
ID: 2
Format: AC-3
Format/Info: Audio Coding 3
Mode extension: CM (complete main)
Format settings, Endianness: Big
Codec ID: A_AC3
Duration: 1h 31mn
Bit rate mode: Constant
Bit rate: 384 Kbps
Channel(s): 6 channels
Channel positions: Front: L C R, Side: L R, LFE
Sampling rate: 48.0 KHz
Frame rate: 31.250 fps (1536 spf)
Compression mode: Lossy
Delay relative to video: -42ms
Stream size: 253 MiB (8%)
Language: English
Default: Yes
Forced: No





Download:
  Kód:   Vybrat vše
http://fastshare.cz/8488955/jigsaw-2017-1080p-web-dl-x264-ac3-titan-ethd-.mkv

Naposledy upravil Stanley dne 10 led 2018, 06:47, celkově upraveno 1
Důvod: Oprava názvu tématu
<<

ikabodekrein

Uživatelský avatar

Profesionál


Super Uploader

ID Užívateľa: 23304

Registrován: 01 dub 2017, 11:38



Příspěvky: 768
(Zobraziť: Všetko /Témy)

Poďakoval som: 0 krát

Poďakovali my: 2 krát



Peňazí na ruke: 9,843.05



Karma: 0

Příspěvek 15 led 2018, 20:57

Jigsaw / Jigsaw (2017)

Obrázek

  Kód:   Vybrat vše
https://www.csfd.cz/film/367943-jigsaw/prehled/


Horor / Thriller / Krimi / Mysteriózní

USA / Kanada, 2017, 91 min
Režie: Michael Spierig, Peter Spierig
Scénář: Pete Goldfinger, Josh Stolberg
Kamera: Ben Nott
Hudba: Charlie Clouser
Hrají: Tobin Bell, Matt Passmore, Callum Keith Rennie, Laura Vandervoort, Hannah Emily Anderson

Zohavená těla se začnou objevovat na různých místech ve městě. V průběhu vyšetřování všechny důkazy jednoznačně ukazují na jednoho muže: Johna Kramera.
Jak to jen může být možné? Muž zvaný Jigsaw je totiž více než 10 let po smrti. Pokračování známé hororové série SAW je tu znovu.... Těšte se, budete se bát.


Obrázek

Velikost souboru : 2,55 GiB
Duration/String : 1h 32mn
Celkový BitRate : 3 961 Kbps


Video
Formát : MPEG-4 Visual
Format_Settings_Matrix/String : Default (H.263)
CodecID : XviD
Bit rate : 3 499 Kbps
Šířka : 1 280pixely
Výška : 536pixely
Poměr stran : 2,40:1


Audio
Formát : AC-3
Bit rate : 384 Kbps
Kanál(y) : 6 kanály
Channel positions : Front: L C R, Side: L R, LFE
Sampling rate : 48,0 KHz
Jazyk : English

Titulky
Jazyk : Czech
Jazyk : English


  Kód:   Vybrat vše
http://www.fastshare.cz/8506353/jigsaw-2017-.720p.webrip.xvid.-cz.titulky-5.1ac3-.mkv

http://datoid.cz/HQBjNv/jigsaw-2017-720p-webrip-xvid-cz-titulky-5-1ac3-mkv



Obrázek

Velikost souboru : 3,21 GiB
Duration/String : 1h 32mn
Celkový BitRate : 4 979 Kbps


Video
Formát : AVC
Format_Profile : High@L4.0
Bit rate : 4 496 Kbps
Šířka : 1 920pixely
Výška : 804pixely
Poměr stran : 2,40:1
Frame rate : 23,976 fps


Audio
Formát : AC-3
Bit rate : 384 Kbps
Kanál(y) : 6 kanály
Channel positions : Front: L C R, Side: L R, LFE
Sampling rate : 48,0 KHz
BitDepth/String : 16 bits
Jazyk : English

Titulky
Jazyk : Czech
Jazyk : English


  Kód:   Vybrat vše
http://www.fastshare.cz/8506405/jigsaw-2017-.1080p.webrip.h264.-cz.titulky-5.1ac3-.mkv

http://datoid.cz/Yi4Xmn/jigsaw-2017-1080p-webrip-h264-cz-titulky-5-1ac3-mkv



Obrázek

Obrázek




Zpět na Filmy originál DVDRIP- Premiéry / s titulkami



Kdo je online

Uživatelé procházející toto fórum: Žádní registrovaní uživatelé a 0 návštevníků

Powered by phpBB © 2000, 2002, 2005, 2007 phpBB Group.
Designed by ST Software.
Installed phpBB version: 3.0.12
Český překlad – phpBB.cz
Karma functions powered by Karma MOD © 2007, 2009 m157y
phpBB SEO
Protected by Anti-Spam ACP
TOPlist