Příspěvek 27 zář 2018, 12:06

John Wick 2 / John Wick: Chapter Two (2017)

John Wick 2 / John Wick: Chapter 2 (2017)
Video: Bluray 1080p
Audio: CZ AC-3 5.1ch, CZ DTS 5.1ch, EN DTS 5.1ch
Titulky: CZ, CZ forced, EN

Obrázek

CSFD / IMDB
  Kód:   Vybrat vše
https://www.csfd.cz/film/60883-john-wick-2/prehled/
https://www.imdb.com/title/tt4425200/?ref_=nv_sr_3


INFO
Format : Matroska
Format version : Version 4 / Version 2
File size : 17.1 GiB
Duration : 2 h 2 min
Overall bit rate : 20.0 Mb/s

Video
Format : AVC
Format profile : High@L4.1
Duration : 2 h 2 min
Bit rate : 16.3 Mb/s
Width : 1 920 pixels
Height : 800 pixels
Display aspect ratio : 2.40:1
Frame rate mode : Constant
Frame rate : 23.976 (24000/1001) FPS
Color space : YUV
Chroma subsampling : 4:2:0
Bit depth : 8 bits
Scan type : Progressive
Bits/(Pixel*Frame) : 0.444
Stream size : 14.0 GiB (82%)

Audio #1
Format : AC-3
Duration : 2 h 2 min
Bit rate mode : Constant
Bit rate : 640 kb/s
Channel(s) : 6 channels
Channel positions : Front: L C R, Side: L R, LFE
Sampling rate : 48.0 kHz
Frame rate : 31.250 FPS (1536 SPF)
Bit depth : 16 bits
Compression mode : Lossy
Stream size : 560 MiB (3%)
Language : Czech
Default : Yes
Forced : No

Audio #2
Format : DTS
Duration : 2 h 2 min
Bit rate mode : Constant
Bit rate : 1 509 kb/s
Channel(s) : 6 channels
Channel positions : Front: L C R, Side: L R, LFE
Sampling rate : 48.0 kHz
Frame rate : 93.750 FPS (512 SPF)
Bit depth : 24 bits
Compression mode : Lossy
Stream size : 1.29 GiB (8%)
Language : Czech
Default : No
Forced : No

Audio #3
Format : DTS
Duration : 2 h 2 min
Bit rate mode : Constant
Bit rate : 1 509 kb/s
Channel(s) : 6 channels
Channel positions : Front: L C R, Side: L R, LFE
Sampling rate : 48.0 kHz
Frame rate : 93.750 FPS (512 SPF)
Bit depth : 24 bits
Compression mode : Lossy
Delay relative to video : 11 ms
Stream size : 1.29 GiB (8%)
Language : English
Default : No
Forced : No

Text #1
Format : UTF-8
Language : Czech
Default : Yes
Forced : No

Text #2
Format : UTF-8
Language : Czech
Default : No
Forced : Yes

Text #3
Format : UTF-8
Default : No
Forced : No


Fastshare
  Kód:   Vybrat vše
http://fastshare.cz/10504121/jw2ch2.part01.rar
http://fastshare.cz/10504127/jw2ch2.part02.rar
http://fastshare.cz/10504135/jw2ch2.part03.rar
http://fastshare.cz/10504144/jw2ch2.part04.rar
http://fastshare.cz/10504149/jw2ch2.part05.rar
http://fastshare.cz/10504158/jw2ch2.part06.rar
http://fastshare.cz/10504163/jw2ch2.part07.rar
http://fastshare.cz/10504168/jw2ch2.part08.rar
http://fastshare.cz/10504171/jw2ch2.part09.rar
http://fastshare.cz/10504172/jw2ch2.part10.rar


Bez hesla. Balené bez kompresie. Pridaný záznam pre opravu dát 5%.