Příspěvek 25 led 2016, 15:55

Julia Ann, Eva Notty - My Friend's Hot Mom [HD/2160p]

MyFriendsHotMom.15.12.31.Eva.Notty.And.Julia.Ann.XXX.2160p.MP4-KTR

  Kód:   Vybrat vše
http://www.imgbabes.com/7gua4oetpt3m/5n8w8h7t.jpg.html


  Kód:   Vybrat vše
http://fastshare.cz/5537847/eva.notty.and.julia.ann.4k.mp4


  Kód:   Vybrat vše
http://www.imgbabes.com/x4x1fp166o3w/79118808338369619864_medium.jpg.html


  Kód:   Vybrat vše
Video
ID                                       : 1
Format                                   : AVC
Format/Info                              : Advanced Video Codec
Format profile                           : High@L5.1
Format settings, CABAC                   : Yes
Format settings, ReFrames                : 3 frames
Codec ID                                 : avc1
Codec ID/Info                            : Advanced Video Coding
Duration                                 : 31mn 18s
Bit rate mode                            : Variable
Bit rate                                 : 20.0 Mbps
Maximum bit rate                         : 100.0 Mbps
Width                                    : 4 096 pixels
Height                                   : 2 160 pixels
Display aspect ratio                     : 1.896
Frame rate mode                          : Constant
Frame rate                               : 23.976 (24000/1001) fps
Standard                                 : NTSC
Color space                              : YUV
Chroma subsampling                       : 4:2:0
Bit depth                                : 8 bits
Scan type                                : Progressive
Bits/(Pixel*Frame)                       : 0.094
Stream size                              : 4.37 GiB (99%)
Language                                 : English
Encoded date                             : UTC 1904-01-01 00:00:00
Tagged date                              : UTC 1904-01-01 00:00:00
Color range                              : Limited
Color primaries                          : BT.709
Transfer characteristics                 : BT.709
Matrix coefficients                      : BT.709

Audio
ID                                       : 2
Format                                   : AAC
Format/Info                              : Advanced Audio Codec
Format profile                           : LC
Codec ID                                 : 40
Duration                                 : 31mn 18s
Bit rate mode                            : Variable
Bit rate                                 : 192 Kbps
Maximum bit rate                         : 289 Kbps
Channel(s)                               : 2 channels
Channel positions                        : Front: L R
Sampling rate                            : 48.0 KHz
Frame rate                               : 46.875 fps (1024 spf)
Compression mode                         : Lossy
Stream size                              : 42.4 MiB (1%)
Language                                 : English
Default                                  : Yes
Alternate group                          : 1
Encoded date                             : UTC 1904-01-01 00:00:00
Tagged date                              : UTC 1904-01-01 00:00:00