Loading...
Oznam

:welcome:



warpark-Forum


Kingsman: Zlatý kruh / Kingsman The Golden Circle (2017)

Moderátor: drobec

<<

L0K0M0T1V


Pokročilý


Užívateľ

ID Užívateľa: 23474

Registrován: 03 lis 2017, 14:29



Příspěvky: 432
(Zobraziť: Všetko /Témy)

Poďakoval som: 0 krát

Poďakovali my: 0 krát



Peňazí na ruke: 5,054.35



Karma: 0

Příspěvek 16 pro 2017, 21:08

Kingsman: Zlatý kruh / Kingsman The Golden Circle (2017)

Kingsman: Zlatý kruh / Kingsman.The.Golden.Circle / 2017


Kingsman.The.Golden.Circle.2017.720p.BluRay.x264.AC3.CZ
Kingsman.The.Golden.Circle.2017.1080p.BluRay.x264.AC3.CZ


Audio: CZ (2.0),EN
Subtitles: CZ(f),CZ,EN

Obrázek

  Kód:   Vybrat vše
Info:

https://www.csfd.cz/film/52975
http://www.imdb.com/title/tt4649466/


Kingsman.The.Golden.Circle.2017.720p.BluRay.x264.AC3.CZ
  Kód:   Vybrat vše
Info
Format                                   : Matroska
Format version                           : Version 4 / Version 2
File size                                : 8.37 GiB
Duration                                 : 2 h 21 min
Overall bit rate                         : 8 497 kb/s
Encoded date                             : UTC 2017-12-16 17:24:01
Writing application                      : mkvmerge v18.0.0 ('Apricity') 64-bit
Writing library                          : libebml v1.3.5 + libmatroska v1.4.8

Video
ID                                       : 4
Format                                   : AVC
Format/Info                              : Advanced Video Codec
Format profile                           : High@L4.1
Format settings, CABAC                   : Yes
Format settings, RefFrames               : 12 frames
Codec ID                                 : V_MPEG4/ISO/AVC
Duration                                 : 2 h 21 min
Bit rate                                 : 7 663 kb/s
Width                                    : 1 280 pixels
Height                                   : 536 pixels
Display aspect ratio                     : 2.40:1
Frame rate mode                          : Constant
Frame rate                               : 23.976 (24000/1001) FPS
Color space                              : YUV
Chroma subsampling                       : 4:2:0
Bit depth                                : 8 bits
Scan type                                : Progressive
Bits/(Pixel*Frame)                       : 0.466
Stream size                              : 7.55 GiB (90%)
Title                                    : Kingsman:The Golden Circle 2017 720p BluRay DD5 1 x264-TayTO
Writing library                          : x264 core 142 r2431+42 c69a006 tMod [8-bit@4:2:0 X86_64]
Encoding settings                        : cabac=1 / ref=12 / deblock=1:-3:-3 / analyse=0x3:0x113 / me=umh / subme=11 / psy=1 / fade_compensate=0.00 / psy_rd=1.05:0.00 / mixed_ref=1 / me_range=32 / chroma_me=1 / trellis=2 / 8x8dct=1 / cqm=0 / deadzone=21,11 / fast_pskip=0 / chroma_qp_offset=-2 / threads=9 / lookahead_threads=1 / sliced_threads=0 / nr=0 / decimate=0 / interlaced=0 / bluray_compat=0 / constrained_intra=0 / fgo=0 / bframes=9 / b_pyramid=2 / b_adapt=2 / b_bias=0 / direct=3 / weightb=1 / open_gop=0 / weightp=2 / keyint=250 / keyint_min=23 / scenecut=40 / intra_refresh=0 / rc_lookahead=60 / rc=crf / mbtree=0 / crf=13.8000 / qcomp=0.60 / qpmin=0:0:0 / qpmax=69:69:69 / qpstep=4 / vbv_maxrate=30000 / vbv_bufsize=38000 / crf_max=0.0 / nal_hrd=none / filler=0 / ip_ratio=1.30 / pb_ratio=1.20 / aq=3:0.80 / aq-sensitivity=10.00 / aq-factor=1.00:1.00:1.00 / aq2=0 / aq3=0 / zones=990,1300,crf=11/2092,2159,crf=11/2616,2693,crf=11/3169,3219,crf=11.8/3316,3497,crf=11.8/8717,8732,crf=11.8/9320,9344,crf=11.8/9389,9415,crf=11.8/9649,9694,crf=11.8/10108,10143,crf=11.8/10664,10812,crf=11.8/10886,11205,crf=11.8/12109,12162,crf=11.8/42117,42234,crf=11.8/45111,45284,crf=11/49577,49626,crf=11.8/49668,49700,crf=11.8/60761,60998,crf=11.8/62414,62477,crf=11.8/62934,63017,crf=11.8/63188,63347,crf=11.8/69625,69687,crf=11/84349,84466,crf=11/84596,84683,crf=11/86122,86176,crf=11/86234,86585,crf=11.8/88067,88618,crf=11/89473,89587,crf=11.8/94031,94164,crf=11.8/94661,94749,crf=11/95084,95198,crf=11.8/95504,95565,crf=11.8/124522,124567,crf=11/124825,124891,crf=11/124947,125010,crf=11/129972,130041,crf=11/132189,132221,crf=11/132322,132358,crf=11/137071,137123,crf=11/141281,141329,crf=11.8/142666,142731,crf=11/142999,143054,crf=11/145203,145307,crf=11.8/161311,161350,crf=11/164272,164458,crf=11/172566,172633,crf=11/172668,172689,crf=11/194518,202891,crf=17
Language                                 : English
Default                                  : Yes
Forced                                   : Yes
Color range                              : Limited
Color primaries                          : BT.709
Transfer characteristics                 : BT.709
Matrix coefficients                      : BT.709

Audio #1
ID                                       : 1
Format                                   : AC-3
Format/Info                              : Audio Coding 3
Format settings, Endianness              : Big
Codec ID                                 : A_AC3
Duration                                 : 2 h 21 min
Bit rate mode                            : Constant
Bit rate                                 : 192 kb/s
Channel(s)                               : 2 channels
Channel positions                        : Front: L R
Sampling rate                            : 48.0 kHz
Frame rate                               : 31.250 FPS (1536 SPF)
Bit depth                                : 16 bits
Compression mode                         : Lossy
Stream size                              : 194 MiB (2%)
Language                                 : Czech
Service kind                             : Complete Main
Default                                  : Yes
Forced                                   : Yes

Audio #2
ID                                       : 5
Format                                   : AC-3
Format/Info                              : Audio Coding 3
Format settings, Endianness              : Big
Codec ID                                 : A_AC3
Duration                                 : 2 h 21 min
Bit rate mode                            : Constant
Bit rate                                 : 640 kb/s
Channel(s)                               : 6 channels
Channel positions                        : Front: L C R, Side: L R, LFE
Sampling rate                            : 48.0 kHz
Frame rate                               : 31.250 FPS (1536 SPF)
Bit depth                                : 16 bits
Compression mode                         : Lossy
Stream size                              : 646 MiB (8%)
Title                                    : English  AC-3 @ 5.1  640kbps
Language                                 : English
Service kind                             : Complete Main
Default                                  : No
Forced                                   : No

Text #1
ID                                       : 2
Format                                   : UTF-8
Codec ID                                 : S_TEXT/UTF8
Codec ID/Info                            : UTF-8 Plain Text
Duration                                 : 1 h 0 min
Bit rate                                 : 0 b/s
Count of elements                        : 6
Stream size                              : 88.0 Bytes (0%)
Title                                    : Czech Forced
Language                                 : Czech
Default                                  : Yes
Forced                                   : Yes

Text #2
ID                                       : 3
Format                                   : UTF-8
Codec ID                                 : S_TEXT/UTF8
Codec ID/Info                            : UTF-8 Plain Text
Duration                                 : 2 h 13 min
Bit rate                                 : 53 b/s
Count of elements                        : 1339
Stream size                              : 52.3 KiB (0%)
Language                                 : Czech
Default                                  : No
Forced                                   : No

Text #3
ID                                       : 6
Format                                   : UTF-8
Codec ID                                 : S_TEXT/UTF8
Codec ID/Info                            : UTF-8 Plain Text
Duration                                 : 1 h 0 min
Bit rate                                 : 0 b/s
Count of elements                        : 6
Stream size                              : 125 Bytes (0%)
Title                                    : English Forced
Language                                 : English
Default                                  : No
Forced                                   : No

Menu
00:00:00.000                             : en:Chapter 01
00:04:51.958                             : en:Chapter 02
00:09:39.454                             : en:Chapter 03
00:13:36.607                             : en:Chapter 04
00:18:54.300                             : en:Chapter 05
00:24:57.287                             : en:Chapter 06
00:28:43.347                             : en:Chapter 07
00:32:52.304                             : en:Chapter 08
00:39:18.731                             : en:Chapter 09
00:43:21.849                             : en:Chapter 10
00:48:26.570                             : en:Chapter 11
00:53:54.106                             : en:Chapter 12
00:58:31.258                             : en:Chapter 13
01:05:04.901                             : en:Chapter 14
01:09:52.522                             : en:Chapter 15
01:13:34.744                             : en:Chapter 16
01:19:41.860                             : en:Chapter 17
01:23:45.103                             : en:Chapter 18
01:28:55.288                             : en:Chapter 19
01:33:25.225                             : en:Chapter 20
01:40:14.759                             : en:Chapter 21
01:45:03.255                             : en:Chapter 22
01:49:38.489                             : en:Chapter 23
01:55:15.992                             : en:Chapter 24
02:01:40.835                             : en:Chapter 25
02:05:44.036                             : en:Chapter 26
02:12:36.407                             : en:Chapter 27
02:15:15.274                             : en:Chapter 28



  Kód:   Vybrat vše
http://fastshare.cz/8343091/kigc-h7.part1.rar
http://fastshare.cz/8343097/kigc-h7.part2.rar
http://fastshare.cz/8343101/kigc-h7.part3.rar
http://fastshare.cz/8343105/kigc-h7.part4.rar
http://fastshare.cz/8343108/kigc-h7.part5.rar

nebo

http://fastshare.cz/8343130/kigc-h7.mkv




********



Kingsman.The.Golden.Circle.2017.1080p.BluRay.x264.AC3.CZ
  Kód:   Vybrat vše
Info
Format                                   : Matroska
Format version                           : Version 4 / Version 2
File size                                : 15.9 GiB
Duration                                 : 2 h 21 min
Overall bit rate                         : 16.1 Mb/s
Encoded date                             : UTC 2017-12-16 18:10:46
Writing application                      : mkvmerge v18.0.0 ('Apricity') 64-bit
Writing library                          : libebml v1.3.5 + libmatroska v1.4.8
Cover                                    : Yes
Attachments                              : Cover.jpg

Video
ID                                       : 4
Format                                   : AVC
Format/Info                              : Advanced Video Codec
Format profile                           : High@L4.1
Format settings, CABAC                   : Yes
Format settings, RefFrames               : 5 frames
Codec ID                                 : V_MPEG4/ISO/AVC
Duration                                 : 2 h 21 min
Bit rate                                 : 14.4 Mb/s
Width                                    : 1 920 pixels
Height                                   : 804 pixels
Display aspect ratio                     : 2.40:1
Frame rate mode                          : Constant
Frame rate                               : 23.976 (24000/1001) FPS
Color space                              : YUV
Chroma subsampling                       : 4:2:0
Bit depth                                : 8 bits
Scan type                                : Progressive
Bits/(Pixel*Frame)                       : 0.389
Stream size                              : 14.2 GiB (89%)
Title                                    : Kingsman: The Golden Circle 2017 1080p BluRay DTS x264-DON
Writing library                          : x264 core 152 r2851+58 429492e t_mod_Custom [8-bit@all X86_64]
Encoding settings                        : cabac=1 / ref=5 / deblock=1:-3:-3 / analyse=0x3:0x133 / me=tesa / subme=11 / psy=1 / fade_compensate=0.00 / psy_rd=1.00:0.00 / mixed_ref=1 / me_range=24 / chroma_me=1 / trellis=2 / 8x8dct=1 / cqm=0 / deadzone=21,11 / fast_pskip=0 / chroma_qp_offset=-2 / threads=12 / lookahead_threads=2 / sliced_threads=0 / nr=0 / decimate=0 / interlaced=0 / bluray_compat=0 / constrained_intra=0 / fgo=0 / bframes=9 / b_pyramid=2 / b_adapt=2 / b_bias=0 / direct=3 / weightb=1 / open_gop=0 / weightp=2 / keyint=250 / keyint_min=23 / scenecut=40 / intra_refresh=0 / rc_lookahead=60 / rc=crf / mbtree=0 / crf=15.7000 / qcomp=0.65 / qpmin=0:0:0 / qpmax=69:69:69 / qpstep=4 / vbv_maxrate=62500 / vbv_bufsize=78125 / crf_max=0.0 / nal_hrd=none / filler=0 / ip_ratio=1.30 / pb_ratio=1.20 / aq=3:0.80 / aq-sensitivity=10.00 / aq-factor=1.00:1.00:1.00 / aq2=0 / aq3=0 / zones=1879,5914,crf=15.2/5915,5974,crf=12.7/5975,8530,crf=15.2/8644,10551,crf=15.2/10664,11651,crf=15.2/11652,11799,crf=12.7/11883,12008,crf=13.7/12009,13118,crf=14.7/32366,32479,crf=15.2/32480,35272,crf=15.5/35536,38599,crf=15.5/40900,43737,crf=15.2/62413,62477,crf=11.7/62477,62932,crf=15.2/62933,63017,crf=14.7/63188,63347,crf=14.7/63387,64129,crf=15.2/64318,64377,crf=15.2/65190,68806,crf=15.5/70937,71023,crf=13.7/71024,71102,crf=15.2/82998,83590,crf=15.2/83591,84107,crf=15.5/84349,84466,crf=13.7/84596,84683,crf=13.7/84684,86089,crf=15.5/86090,86121,crf=12.7/86122,88042,crf=15.5/88043,88722,crf=10/89091,90303,crf=15.5/94031,94163,crf=13.7/95503,95565,crf=13.7/124522,124566,crf=13.7/124824,124891,crf=11/124981,125007,crf=10/129972,130041,crf=12.7/132189,132221,crf=11.7/132322,132358,crf=12.7/132472,132521,crf=13.7/132818,132856,crf=11.7/132886,132938,crf=12.7/133201,133213,crf=12.7/137069,137123,crf=13.7/137952,137995,crf=13.7/141281,141329,crf=12.7/141848,141920,crf=12.7/142666,142731,crf=12.7/142999,143054,crf=12.7/145510,145647,crf=13.7/160895,160965,crf=15.2/161311,161388,crf=14.7/161551,161650,crf=14.7/161987,162027,crf=13.7/162037,162066,crf=13.7/162428,162455,crf=12.7/162456,162548,crf=14.7/164168,164185,crf=12.7/164245,164285,crf=11.7/165558,165595,crf=12.7/167594,167630,crf=13.7/178026,178103,crf=11/193705,193720,crf=12.7
Language                                 : English
Default                                  : Yes
Forced                                   : Yes
Color range                              : Limited
Matrix coefficients                      : BT.709

Audio #1
ID                                       : 1
Format                                   : AC-3
Format/Info                              : Audio Coding 3
Format settings, Endianness              : Big
Codec ID                                 : A_AC3
Duration                                 : 2 h 21 min
Bit rate mode                            : Constant
Bit rate                                 : 192 kb/s
Channel(s)                               : 2 channels
Channel positions                        : Front: L R
Sampling rate                            : 48.0 kHz
Frame rate                               : 31.250 FPS (1536 SPF)
Bit depth                                : 16 bits
Compression mode                         : Lossy
Stream size                              : 194 MiB (1%)
Language                                 : Czech
Service kind                             : Complete Main
Default                                  : Yes
Forced                                   : Yes

Audio #2
ID                                       : 5
Format                                   : DTS
Format/Info                              : Digital Theater Systems
Mode                                     : 16
Format settings, Endianness              : Big
Codec ID                                 : A_DTS
Duration                                 : 2 h 21 min
Bit rate mode                            : Constant
Bit rate                                 : 1 509 kb/s
Channel(s)                               : 6 channels
Channel positions                        : Front: L C R, Side: L R, LFE
Sampling rate                            : 48.0 kHz
Frame rate                               : 93.750 FPS (512 SPF)
Bit depth                                : 24 bits
Compression mode                         : Lossy
Stream size                              : 1.49 GiB (9%)
Language                                 : English
Default                                  : No
Forced                                   : No

Text #1
ID                                       : 2
Format                                   : UTF-8
Codec ID                                 : S_TEXT/UTF8
Codec ID/Info                            : UTF-8 Plain Text
Duration                                 : 1 h 0 min
Bit rate                                 : 0 b/s
Count of elements                        : 6
Stream size                              : 88.0 Bytes (0%)
Title                                    : Czech Forced
Language                                 : Czech
Default                                  : Yes
Forced                                   : Yes

Text #2
ID                                       : 3
Format                                   : UTF-8
Codec ID                                 : S_TEXT/UTF8
Codec ID/Info                            : UTF-8 Plain Text
Duration                                 : 2 h 13 min
Bit rate                                 : 53 b/s
Count of elements                        : 1339
Stream size                              : 52.3 KiB (0%)
Language                                 : Czech
Default                                  : No
Forced                                   : No

Text #3
ID                                       : 6
Format                                   : UTF-8
Codec ID                                 : S_TEXT/UTF8
Codec ID/Info                            : UTF-8 Plain Text
Duration                                 : 2 h 13 min
Bit rate                                 : 55 b/s
Count of elements                        : 1882
Stream size                              : 53.9 KiB (0%)
Language                                 : English
Default                                  : No
Forced                                   : No

Text #4
ID                                       : 7
Format                                   : UTF-8
Codec ID                                 : S_TEXT/UTF8
Codec ID/Info                            : UTF-8 Plain Text
Duration                                 : 1 h 0 min
Bit rate                                 : 0 b/s
Count of elements                        : 6
Stream size                              : 125 Bytes (0%)
Title                                    : Forced
Language                                 : English
Default                                  : No
Forced                                   : Yes

Menu
00:00:00.000                             : en:00:00:00.000
00:04:51.958                             : en:00:04:51.958
00:09:39.454                             : en:00:09:39.454
00:13:36.607                             : en:00:13:36.607
00:18:54.300                             : en:00:18:54.300
00:24:57.287                             : en:00:24:57.287
00:28:43.347                             : en:00:28:43.347
00:32:52.304                             : en:00:32:52.304
00:39:18.731                             : en:00:39:18.731
00:43:21.849                             : en:00:43:21.849
00:48:26.570                             : en:00:48:26.570
00:53:54.106                             : en:00:53:54.106
00:58:31.258                             : en:00:58:31.258
01:05:04.901                             : en:01:05:04.901
01:09:52.522                             : en:01:09:52.522
01:13:34.744                             : en:01:13:34.744
01:19:41.860                             : en:01:19:41.860
01:23:45.103                             : en:01:23:45.103
01:28:55.288                             : en:01:28:55.288
01:33:25.225                             : en:01:33:25.225
01:40:14.759                             : en:01:40:14.759
01:45:03.255                             : en:01:45:03.255
01:49:38.489                             : en:01:49:38.489
01:55:15.992                             : en:01:55:15.992
02:01:40.835                             : en:02:01:40.835
02:05:44.036                             : en:02:05:44.036
02:12:36.407                             : en:02:12:36.407
02:15:15.274                             : en:02:15:15.274


  Kód:   Vybrat vše
http://fastshare.cz/8343272/kigc-h8.part01.rar
http://fastshare.cz/8343274/kigc-h8.part02.rar
http://fastshare.cz/8343280/kigc-h8.part03.rar
http://fastshare.cz/8343283/kigc-h8.part04.rar
http://fastshare.cz/8343307/kigc-h8.part05.rar
http://fastshare.cz/8343312/kigc-h8.part06.rar
http://fastshare.cz/8343315/kigc-h8.part07.rar
http://fastshare.cz/8343321/kigc-h8.part08.rar
http://fastshare.cz/8343323/kigc-h8.part09.rar

nebo

http://fastshare.cz/8343356/kigc-h8.mkv

V případě že ukazuje po stažení souboru z Fastshare u souboru 0MB je to způsobeno že to stahujete přes volné stahování, soubory jsou v pořádku a při stažení přes kredit je i velikost těchto souborů v pořádku.
<<

browing3006


Profesionál


Uploader

ID Užívateľa: 21287

Registrován: 26 kvě 2015, 02:41



Příspěvky: 889
(Zobraziť: Všetko /Témy)

Poďakoval som: 0 krát

Poďakovali my: 4 krát



Peňazí na ruke: 8,869.95



Karma: 0

Příspěvek 17 pro 2017, 01:22

Kingsman: Zlatý kruh / Kingsman The Golden Circle (2017)

Kingsman: Zlatý kruh / Kingsman The Golden Circle (2017)

CSFD:

  Kód:   Vybrat vše
https://www.csfd.cz/film/52975
http://www.imdb.com/title/tt4649466/


Obrázek

Kingsman.The.Golden.Circle.2017.720p.BluRay.x264.CZ
Kingsman.The.Golden.Circle.2017.1080p.BluRay.x264.CZ
Kingsman.The.Golden.Circle.2017.1080p.BluRay.x264.CZ


Kingsman.The.Golden.Circle.2017.720p.BluRay.x264.CZ
Jazyk: Czech 2.0 192 Kbps , English 5.1 640 Kbps
Subtitles: Czech Forced , Czech , English forced , English

iNFO

  Kód:   Vybrat vše
Formát                                   : Matroska
Format_Version                           : Version 4 / Version 2
Velikost souboru                         : 5,90 GiB
Duration/String                          : 2h 21mn
Celkový BitRate                          : 5 987 Kbps
Encoded date                             : UTC 2017-12-16 20:27:48
Použitý software                         : mkvmerge v6.2.0 ('Promised Land') built on Apr 28 2013 12:22:01
Enkódoval                                : libebml v1.3.0 + libmatroska v1.4.0

Video
ID                                       : 1
Formát                                   : AVC
Formát/                                  : Advanced Video Codec
Format_Profile                           : High@L4.1
Format_Settings_CABAC/String             : Ano
Format_Settings_RefFrames/String         : 5 frame
CodecID                                  : V_MPEG4/ISO/AVC
Duration/String                          : 2h 21mn
Bit rate                                 : 5 146 Kbps
Šířka                                    : 1 280pixely
Výška                                    : 536pixely
Poměr stran                              : 2,40:1
Frame rate                               : 23,976 fps
ColorSpace                               : YUV
ChromaSubsampling                        : 4:2:0
BitDepth/String                          : 8 bits
ScanType/String                          : Progressive
Bits/(Pixel*Frame)                       : 0.313
StreamSize/String                        : 4,96 GiB (84%)
Enkódoval                                : x264 core 152 r2851 ba24899
Nastavení enkoderu                       : cabac=1 / ref=5 / deblock=1:0:0 / analyse=0x3:0x133 /
 me=umh / subme=7 / psy=1 / psy_rd=1.00:0.00 / mixed_ref=1 / me_range=16 / chroma_me=1 / trellis=1
/ 8x8dct=1 / cqm=0 / deadzone=21,11 / fast_pskip=0 / chroma_qp_offset=-2 / threads=17 / lookahead_t
hreads=2 / sliced_threads=0 / nr=0 / decimate=1 / interlaced=0 / bluray_compat=0 / constrained_intra
=0 / bframes=3 / b_pyramid=2 / b_adapt=1 / b_bias=0 / direct=1 / weightb=1 / open_gop=0 / weightp=2 /
 keyint=250 / keyint_min=23 / scenecut=40 / intra_refresh=0 / rc_lookahead=40 / rc=2pass / mbtree=1 /
 bitrate=5146 / ratetol=1.0 / qcomp=0.60 / qpmin=0 / qpmax=69 / qpstep=4 / cplxblur=20.0 / qblur=0.5 /
 ip_ratio=1.40 / aq=1:1.00
Jazyk                                    : English
Default                                  : Ano
Forced                                   : Ne
DURATION                                 : 02:21:02.246000000
NUMBER_OF_FRAMES                         : 202891
NUMBER_OF_BYTES                          : 5442022262
_STATISTICS_WRITING_APP                  : mkvmerge v17.0.0 ('Be Ur Friend') 64-bit
_STATISTICS_WRITING_DATE_UTC             : 2017-11-30 01:11:51
_STATISTICS_TAGS                         : BPS DURATION NUMBER_OF_FRAMES NUMBER_OF_BYTES

Audio #1
ID                                       : 2
Formát                                   : AC-3
Formát/                                  : Audio Coding 3
Format_Settings_ModeExtension            : CM (complete main)
Format_Settings_Endianness               : Big
CodecID                                  : A_AC3
Duration/String                          : 2h 21mn
Bit rate                                 : 640 Kbps
Kanál(y)                                 : 6 kanály
Channel positions                        : Front: L C R, Side: L R, LFE
Sampling rate                            : 48,0 KHz
BitDepth/String                          : 16 bits
StreamSize/String                        : 646 MiB (11%)
Titul                                    : DD 5.1 @ 640 kbps
Jazyk                                    : English
Default                                  : Ne
Forced                                   : Ne

Audio #2
ID                                       : 3
Formát                                   : AC-3
Formát/                                  : Audio Coding 3
Format_Settings_ModeExtension            : CM (complete main)
Format_Settings_Endianness               : Big
CodecID                                  : A_AC3
Duration/String                          : 2h 21mn
Bit rate                                 : 192 Kbps
Kanál(y)                                 : 2 kanály
Channel positions                        : Front: L R
Sampling rate                            : 48,0 KHz
BitDepth/String                          : 16 bits
StreamSize/String                        : 194 MiB (3%)
Titul                                    : DD 2.0 @ 192 kbps
Jazyk                                    : Czech
Default                                  : Ano
Forced                                   : Ano

Text #1
ID                                       : 4
Formát                                   : UTF-8
CodecID                                  : S_TEXT/UTF8
/                                        : UTF-8 Plain Text
Titul                                    : Czech Forced
Jazyk                                    : Czech
Default                                  : Ano
Forced                                   : Ano

Text #2
ID                                       : 5
Formát                                   : UTF-8
CodecID                                  : S_TEXT/UTF8
/                                        : UTF-8 Plain Text
Titul                                    : English Forced
Jazyk                                    : English
Default                                  : Ne
Forced                                   : Ne

Text #3
ID                                       : 6
Formát                                   : UTF-8
CodecID                                  : S_TEXT/UTF8
/                                        : UTF-8 Plain Text
Jazyk                                    : Czech
Default                                  : Ne
Forced                                   : Ne

Text #4
ID                                       : 7
Formát                                   : PGS
MuxingMode                               : zlib
CodecID                                  : S_HDMV/PGS
/                                        : The same subtitle format used on BDs/HD-DVDs
Jazyk                                    : English
Default                                  : Ne
Forced                                   : Ne

Text #5
ID                                       : 8
Formát                                   : PGS
MuxingMode                               : zlib
CodecID                                  : S_HDMV/PGS
/                                        : The same subtitle format used on BDs/HD-DVDs
Jazyk                                    : English
Default                                  : Ne
Forced                                   : Ne


Obrázek
  Kód:   Vybrat vše
http://fastshare.cz/8344622/sagmat4.mkv

  Kód:   Vybrat vše
http://fastshare.cz/8343594/sagmat4.part1.rar
http://fastshare.cz/8343660/sagmat4.part2.rar
http://fastshare.cz/8343721/sagmat4.part3.rar
http://fastshare.cz/8343768/sagmat4.part4.rar

Přidán záznam na opravu dat 5%.
Kingsman.The.Golden.Circle.2017.1080p.BluRay.x264.CZ
Jazyk: Czech 2.0 192 Kbps , English 5.1 640 Kbps
Subtitles: Czech Forced , Czech , English forced , English

iNFO

  Kód:   Vybrat vše
Formát                                   : Matroska
Format_Version                           : Version 4 / Version 2
Velikost souboru                         : 9,18 GiB
Duration/String                          : 2h 21mn
Celkový BitRate                          : 9 314 Kbps
Encoded date                             : UTC 2017-12-16 20:33:16
Použitý software                         : mkvmerge v6.2.0 ('Promised Land') built on Apr 28 2013 12:22:01
Enkódoval                                : libebml v1.3.0 + libmatroska v1.4.0

Video
ID                                       : 1
Formát                                   : AVC
Formát/                                  : Advanced Video Codec
Format_Profile                           : High@L4.1
Format_Settings_CABAC/String             : Ano
Format_Settings_RefFrames/String         : 5 frame
CodecID                                  : V_MPEG4/ISO/AVC
Duration/String                          : 2h 21mn
Bit rate                                 : 8 473 Kbps
Šířka                                    : 1 920pixely
Výška                                    : 808pixely
Poměr stran                              : 2,40:1
Frame rate                               : 23,976 fps
ColorSpace                               : YUV
ChromaSubsampling                        : 4:2:0
BitDepth/String                          : 8 bits
ScanType/String                          : Progressive
Bits/(Pixel*Frame)                       : 0.228
StreamSize/String                        : 8,17 GiB (89%)
Enkódoval                                : x264 core 152 r2851 ba24899
Nastavení enkoderu                       : cabac=1 / ref=5 / deblock=1:-3:-3 / analyse=0x3:0x113 /
me=umh / subme=8 / psy=1 / psy_rd=1.00:0.00 / mixed_ref=1 / me_range=16 / chroma_me=1 / trellis=1 /
 8x8dct=1 / cqm=0 / deadzone=21,11 / fast_pskip=1 / chroma_qp_offset=-2 / threads=25 / lookahead_thr
eads=4 / sliced_threads=0 / nr=0 / decimate=1 / interlaced=0 / bluray_compat=0 / constrained_intra=0
/ bframes=3 / b_pyramid=2 / b_adapt=1 / b_bias=0 / direct=3 / weightb=1 / open_gop=0 / weightp=2 / ke
yint=240 / keyint_min=24 / scenecut=40 / intra_refresh=0 / rc_lookahead=50 / rc=2pass / mbtree=1 / bit
rate=8473 / ratetol=1.0 / qcomp=0.60 / qpmin=0 / qpmax=69 / qpstep=4 / cplxblur=20.0 / qblur=0.5 / ip_
ratio=1.40 / aq=1:1.00
Default                                  : Ano
Forced                                   : Ne
DURATION                                 : 02:21:02.246000000
NUMBER_OF_FRAMES                         : 202891
NUMBER_OF_BYTES                          : 8961098508
_STATISTICS_WRITING_APP                  : mkvmerge v18.0.0 ('Apricity') 64-bit
_STATISTICS_WRITING_DATE_UTC             : 2017-11-30 02:01:19
_STATISTICS_TAGS                         : BPS DURATION NUMBER_OF_FRAMES NUMBER_OF_BYTES

Audio #1
ID                                       : 2
Formát                                   : AC-3
Formát/                                  : Audio Coding 3
Format_Settings_ModeExtension            : CM (complete main)
Format_Settings_Endianness               : Big
CodecID                                  : A_AC3
Duration/String                          : 2h 21mn
Bit rate                                 : 640 Kbps
Kanál(y)                                 : 6 kanály
Channel positions                        : Front: L C R, Side: L R, LFE
Sampling rate                            : 48,0 KHz
BitDepth/String                          : 16 bits
StreamSize/String                        : 646 MiB (7%)
Titul                                    : DD 5.1 @ 640 kbps
Jazyk                                    : English
Default                                  : Ne
Forced                                   : Ne

Audio #2
ID                                       : 3
Formát                                   : AC-3
Formát/                                  : Audio Coding 3
Format_Settings_ModeExtension            : CM (complete main)
Format_Settings_Endianness               : Big
CodecID                                  : A_AC3
Duration/String                          : 2h 21mn
Bit rate                                 : 192 Kbps
Kanál(y)                                 : 2 kanály
Channel positions                        : Front: L R
Sampling rate                            : 48,0 KHz
BitDepth/String                          : 16 bits
StreamSize/String                        : 194 MiB (2%)
Titul                                    : DD 2.0 @ 192 kbps
Jazyk                                    : Czech
Default                                  : Ano
Forced                                   : Ano

Text #1
ID                                       : 4
Formát                                   : UTF-8
CodecID                                  : S_TEXT/UTF8
/                                        : UTF-8 Plain Text
Titul                                    : Czech Forced
Jazyk                                    : Czech
Default                                  : Ano
Forced                                   : Ano

Text #2
ID                                       : 5
Formát                                   : UTF-8
CodecID                                  : S_TEXT/UTF8
/                                        : UTF-8 Plain Text
Titul                                    : English Forced
Jazyk                                    : English
Default                                  : Ne
Forced                                   : Ne

Text #3
ID                                       : 6
Formát                                   : UTF-8
CodecID                                  : S_TEXT/UTF8
/                                        : UTF-8 Plain Text
Jazyk                                    : Czech
Default                                  : Ne
Forced                                   : Ne

Text #4
ID                                       : 7
Formát                                   : PGS
MuxingMode                               : zlib
CodecID                                  : S_HDMV/PGS
/                                        : The same subtitle format used on BDs/HD-DVDs
Jazyk                                    : English
Default                                  : Ne
Forced                                   : Ne

Text #5
ID                                       : 8
Formát                                   : PGS
MuxingMode                               : zlib
CodecID                                  : S_HDMV/PGS
/                                        : The same subtitle format used on BDs/HD-DVDs
Jazyk                                    : English
Default                                  : Ne
Forced                                   : Ne


Obrázek
  Kód:   Vybrat vše
http://fastshare.cz/8349225/sagmat5.mkv

  Kód:   Vybrat vše
http://fastshare.cz/8343836/sagmat5.part1.rar
http://fastshare.cz/8343893/sagmat5.part2.rar
http://fastshare.cz/8343930/sagmat5.part3.rar
http://fastshare.cz/8343966/sagmat5.part4.rar
http://fastshare.cz/8344019/sagmat5.part5.rar
http://fastshare.cz/8344049/sagmat5.part6.rar

Přidán záznam na opravu dat 5%.
Kingsman.The.Golden.Circle.2017.1080p.BluRay.x264.CZ
Jazyk: Czech 2.0 192 Kbps , English 5.1 640 Kbps
Subtitles: Czech Forced , Czech , English forced , English

iNFO

  Kód:   Vybrat vše
Formát                                   : Matroska
Format_Version                           : Version 4 / Version 2
Velikost souboru                         : 17,5 GiB
Duration/String                          : 2h 21mn
Celkový BitRate                          : 17,8 Mbps
Encoded date                             : UTC 2017-12-16 20:39:29
Použitý software                         : mkvmerge v6.2.0 ('Promised Land') built on Apr 28 2013 12:22:01
Enkódoval                                : libebml v1.3.0 + libmatroska v1.4.0
DURATION                                 : 02:21:01.244000000
NUMBER_OF_FRAMES                         : 202867
NUMBER_OF_BYTES                          : 17930288945
_STATISTICS_WRITING_APP                  : DVDFab 10.0.6.2
_STATISTICS_WRITING_DATE_UTC             : 2017-12-04 18:11:48
_STATISTICS_TAGS                         : BPS DURATION NUMBER_OF_FRAMES NUMBER_OF_BYTES

Video
ID                                       : 1
Formát                                   : AVC
Formát/                                  : Advanced Video Codec
Format_Profile                           : High@L4.1
Format_Settings_CABAC/String             : Ano
Format_Settings_RefFrames/String         : 3 frame
CodecID                                  : V_MPEG4/ISO/AVC
Duration/String                          : 2h 21mn
Bit rate                                 : 17,0 Mbps
Šířka                                    : 1 920pixely
Výška                                    : 804pixely
Poměr stran                              : 2,40:1
Frame rate                               : 23,976 fps
ColorSpace                               : YUV
ChromaSubsampling                        : 4:2:0
BitDepth/String                          : 8 bits
ScanType/String                          : Progressive
Bits/(Pixel*Frame)                       : 0.458
StreamSize/String                        : 16,4 GiB (93%)
Enkódoval                                : x264 core 148
Nastavení enkoderu                       : cabac=1 / ref=3 / deblock=1:-1:-1 / analyse=0x3:0 / me=hex
/ subme=5 / psy=1 / psy_rd=1.00:0.00 / mixed_ref=0 / me_range=16 / chroma_me=1 / trellis=1 / 8x8dct=1
/ cqm=0 / deadzone=21,11 / fast_pskip=0 / chroma_qp_offset=0 / threads=12 / lookahead_threads=3 / slic
ed_threads=0 / nr=0 / decimate=1 / interlaced=0 / bluray_compat=0 / constrained_intra=0 / bframes=2 /
b_pyramid=0 / b_adapt=1 / b_bias=0 / direct=1 / weightb=0 / open_gop=0 / weightp=0 / keyint=24 / keyi
nt_min=2 / scenecut=40 / intra_refresh=0 / rc=2pass / mbtree=0 / bitrate=16952 / ratetol=1.0 / qcomp=
0.60 / qpmin=0 / qpmax=69 / qpstep=4 / cplxblur=20.0 / qblur=0.5 / ip_ratio=1.40 / pb_ratio=1.30 / aq
=1:1.00
Default                                  : Ano
Forced                                   : Ne
colour_primaries                         : BT.709
transfer_characteristics                 : BT.709
matrix_coefficients                      : BT.709

Audio #1
ID                                       : 2
Formát                                   : AC-3
Formát/                                  : Audio Coding 3
Format_Settings_ModeExtension            : CM (complete main)
Format_Settings_Endianness               : Big
CodecID                                  : A_AC3
Duration/String                          : 2h 21mn
Bit rate                                 : 640 Kbps
Kanál(y)                                 : 6 kanály
Channel positions                        : Front: L C R, Side: L R, LFE
Sampling rate                            : 48,0 KHz
BitDepth/String                          : 16 bits
StreamSize/String                        : 646 MiB (4%)
Titul                                    : DD 5.1 @ 640 kbps
Jazyk                                    : English
Default                                  : Ne
Forced                                   : Ne

Audio #2
ID                                       : 3
Formát                                   : AC-3
Formát/                                  : Audio Coding 3
Format_Settings_ModeExtension            : CM (complete main)
Format_Settings_Endianness               : Big
CodecID                                  : A_AC3
Duration/String                          : 2h 21mn
Bit rate                                 : 192 Kbps
Kanál(y)                                 : 2 kanály
Channel positions                        : Front: L R
Sampling rate                            : 48,0 KHz
BitDepth/String                          : 16 bits
StreamSize/String                        : 194 MiB (1%)
Titul                                    : DD 2.0 @ 192 kbps
Jazyk                                    : Czech
Default                                  : Ano
Forced                                   : Ano

Text #1
ID                                       : 4
Formát                                   : UTF-8
CodecID                                  : S_TEXT/UTF8
/                                        : UTF-8 Plain Text
Titul                                    : Czech Forced
Jazyk                                    : Czech
Default                                  : Ano
Forced                                   : Ano

Text #2
ID                                       : 5
Formát                                   : UTF-8
CodecID                                  : S_TEXT/UTF8
/                                        : UTF-8 Plain Text
Titul                                    : English Forced
Jazyk                                    : English
Default                                  : Ne
Forced                                   : Ne

Text #3
ID                                       : 6
Formát                                   : UTF-8
CodecID                                  : S_TEXT/UTF8
/                                        : UTF-8 Plain Text
Jazyk                                    : Czech
Default                                  : Ne
Forced                                   : Ne

Text #4
ID                                       : 7
Formát                                   : PGS
MuxingMode                               : zlib
CodecID                                  : S_HDMV/PGS
/                                        : The same subtitle format used on BDs/HD-DVDs
Jazyk                                    : English
Default                                  : Ne
Forced                                   : Ne

Text #5
ID                                       : 8
Formát                                   : PGS
MuxingMode                               : zlib
CodecID                                  : S_HDMV/PGS
/                                        : The same subtitle format used on BDs/HD-DVDs
Jazyk                                    : English
Default                                  : Ne
Forced                                   : Ne


Obrázek
  Kód:   Vybrat vše
http://fastshare.cz/8344094/sagmat6.part01.rar
http://fastshare.cz/8344127/sagmat6.part02.rar
http://fastshare.cz/8344171/sagmat6.part03.rar
http://fastshare.cz/8344217/sagmat6.part04.rar
http://fastshare.cz/8344264/sagmat6.part05.rar
http://fastshare.cz/8344297/sagmat6.part06.rar
http://fastshare.cz/8344340/sagmat6.part07.rar
http://fastshare.cz/8344397/sagmat6.part08.rar
http://fastshare.cz/8344432/sagmat6.part09.rar
http://fastshare.cz/8344465/sagmat6.part10.rar

Přidán záznam na opravu dat 5%.
<<

ikabodekrein

Uživatelský avatar

Profesionál


Super Uploader

ID Užívateľa: 23304

Registrován: 01 dub 2017, 11:38



Příspěvky: 768
(Zobraziť: Všetko /Témy)

Poďakoval som: 0 krát

Poďakovali my: 2 krát



Peňazí na ruke: 9,843.05



Karma: 0

Příspěvek 17 pro 2017, 23:40

Kingsman: Zlatý kruh / Kingsman The Golden Circle (2017)

Obrázek

  Kód:   Vybrat vše
https://www.csfd.cz/film/52975-kingsman-zlaty-kruh/prehled/


Akční / Dobrodružný / Komedie
USA / Velká Británie, 2017, 141 min

Režie: Matthew Vaughn
Předloha: Mark Millar (komiks), Dave Gibbons (komiks)
Scénář: Matthew Vaughn, Jane Goldman
Kamera: George Richmond
Hudba: Henry Jackman, Matthew Margeson
Hrají: Taron Egerton, Halle Berry, Julianne Moore, Channing Tatum, Colin Firth

Svět Kingsmanů se poprvé představil ve filmu Kingsman: Tajná služba jako nezávislá, mezinárodní, špionážní agentura pracující v hlibokém utajení a jejímž cílem je bezpečný svět. V dalším pokračování Kingsman: Zlatý kruh čelí naši hrdinové novým výzvám. Centrála Kingsmanů je zničena a celý svět se stává rukojmím. Kingsmany čekají nové úkoly i překážky. Spojí se se spřátelenou americkou špionážní organizací Statesman. Obě dvě agentury musí společnými silami porazit nebezpečného nepřítele a zachránit tak svět.



Obrázek


Velikost souboru : 3,38 GiB
Duration/String : 2h 21mn
Celkový BitRate : 3 431 Kbps

Video
Formát : AVC
Format_Profile : Main@L3.1
Bit rate : 2 777 Kbps
Šířka : 1 280pixely
Výška : 540pixely
Poměr stran : 2,40:1
Frame rate : 23,976 fps


Audio
Formát : AC-3
Bit rate : 640 Kbps
Kanál(y) : 6 kanály
Channel positions : Front: L C R, Side: L R, LFE
Sampling rate : 48,0 KHz
BitDepth/String : 16 bits
Jazyk : Czech


  Kód:   Vybrat vše
http://www.fastshare.cz/8349104/kingsman.zlaty.kruh-2017-.720p.brrip.x264.cz.dabing.mkv

http://datoid.cz/Xyqh7D/kingsman-zlaty-kruh-2017-720p-brrip-x264-cz-dabing-mkv


Obrázek


Velikost souboru : 14,0 GiB
Duration/String : 2h 21mn
Celkový BitRate : 14,2 Mbps


Video
Formát : AVC
Format_Profile : High@L4.1
BitRate_Nominal/String : 8 473 Kbps
Šířka : 1 920pixely
Výška : 808pixely
Poměr stran : 2,40:1
Frame rate : 23,976 fps


Audio #1
Formát : AC-3
Bit rate : 640 Kbps
Kanál(y) : 6 kanály
Channel positions : Front: L C R, Side: L R, LFE
Sampling rate : 48,0 KHz
BitDepth/String : 16 bits
Jazyk : Czech


Audio #2
Formát : DTS
Bit rate : 1 509 Kbps
Kanál(y) : 8 kanály / 6 kanály
Channel positions : Front: L C R, Side: L R, Back: L R, LFE / Front: L C R, Side: L R, LFE
Sampling rate : 48,0 KHz
BitDepth/String : 24 bits
Jazyk : English

Titulky
Jazyk : Czech


  Kód:   Vybrat vše
http://www.fastshare.cz/8349825/kingsman.zlaty.kruh.-2017-.1080p.bluray.-cz.dabing-5.1ac3-.mkv


http://www.fastshare.cz/8357934/kingsman.zlaty.kruh.-2017-.1080p.bluray.-cz.dabing-5.1ac3-.part1.rar
http://www.fastshare.cz/8357964/kingsman.zlaty.kruh.-2017-.1080p.bluray.-cz.dabing-5.1ac3-.part2.rar
http://www.fastshare.cz/8358014/kingsman.zlaty.kruh.-2017-.1080p.bluray.-cz.dabing-5.1ac3-.part3.rar
http://www.fastshare.cz/8358031/kingsman.zlaty.kruh.-2017-.1080p.bluray.-cz.dabing-5.1ac3-.part4.rar


http://datoid.cz/HnMEIQ/kingsman-zlaty-kruh-2017-1080p-bluray-cz-dabing-5-1ac3-part1-rar
http://datoid.cz/0fg7u0/kingsman-zlaty-kruh-2017-1080p-bluray-cz-dabing-5-1ac3-part2-rar
http://datoid.cz/M2B1qC/kingsman-zlaty-kruh-2017-1080p-bluray-cz-dabing-5-1ac3-part3-rar
http://datoid.cz/ulH00e/kingsman-zlaty-kruh-2017-1080p-bluray-cz-dabing-5-1ac3-part4-rar


Obrázek
Obrázek
<<

freesby89


Pokročilý


Užívateľ

ID Užívateľa: 23506

Registrován: 12 pro 2017, 15:52



Příspěvky: 324
(Zobraziť: Všetko /Témy)

Poďakoval som: 0 krát

Poďakovali my: 1 krát



Peňazí na ruke: 4,077.65



Karma: 0

Příspěvek 20 pro 2017, 19:56

Kingsman: Zlatý kruh / Kingsman The Golden Circle (2017)

kingsman.the.golden.circle.2017.720p.bluray.x264-sparks.mkv cz dabing




Cover:

Obrázek

Info:

Jazyk: CZ,EN
Titulky: EN,CZ

Csfd:
  Kód:   Vybrat vše
https://www.csfd.cz/film/264588-muzi-v-cernem-3/prehled/

Info:
kingsman.the.golden.circle.2017.720p.bluray.x264-sparks.mkv
Formát: Matroska
Format_Version: Version 4 / Version 2
Velikost souboru: 6,56 GiB
Duration/String: 2 h 21 min
Celkový BitRate: 6 656 kb/s
Encoded date: UTC 2017-11-30 01:11:51
Použitý software: mkvmerge v17.0.0 ('Be Ur Friend) 64-bit
Enkódoval: libebml v1.3.5 + libmatroska v1.4.8

Video
ID: 1
Formát: AVC
Formát/: Advanced Video Codec
Format_Profile: High@L4.1
Format_Settings_CABAC/String: Ano
Format_Settings_RefFrames/String: 5 frame
CodecID: V_MPEG4/ISO/AVC
Duration/String: 2 h 21 min
Bit rate: 5 146 kb/s
Šířka: 1 280pixely
Výška: 536pixely
Poměr stran: 2,40:1
Frame rate: 23,976 (24000/1001) FPS
ColorSpace: YUV
ChromaSubsampling/String: 4:2:0
BitDepth/String: 8 bits
ScanType/String: Progressive
Bits/(Pixel*Frame): 0.313
StreamSize/String: 5,07 GiB (77%)
Enkódoval: x264 core 152 r2851 ba24899
Nastavení enkoderu: cabac=1 / ref=5 / deblock=1:0:0 / analyse=0x3:0x133 / me=umh / subme=7 / psy=1 / psy_rd=1.00:0.00 / mixed_ref=1 / me_range=16 / chroma_me=1 / trellis=1 / 8x8dct=1 / cqm=0 / deadzone=21,11 / fast_pskip=0 / chroma_qp_offset=-2 / threads=17 / lookahead_threads=2 / sliced_threads=0 / nr=0 / decimate=1 / interlaced=0 / bluray_compat=0 / constrained_intra=0 / bframes=3 / b_pyramid=2 / b_adapt=1 / b_bias=0 / direct=1 / weightb=1 / open_gop=0 / weightp=2 / keyint=250 / keyint_min=23 / scenecut=40 / intra_refresh=0 / rc_lookahead=40 / rc=2pass / mbtree=1 / bitrate=5146 / ratetol=1.0 / qcomp=0.60 / qpmin=0 / qpmax=69 / qpstep=4 / cplxblur=20.0 / qblur=0.5 / ip_ratio=1.40 / aq=1:1.00
Jazyk: English
Default: Ano
Forced: Ne

Audio
ID: 2
Formát: DTS
Formát/: Digital Theater Systems
Format_Settings_Mode: 16
Format_Settings_Endianness: Big
CodecID: A_DTS
Duration/String: 2 h 21 min
Bit rate: 1 509 kb/s
Kanál(y): 6 kanály
Channel positions: Front: L C R, Side: L R, LFE
Sampling rate: 48,0 kHz
Frame rate: 93,750 FPS (512 SPF)
BitDepth/String: 24 bits
StreamSize/String: 1,49 GiB (23%)
Jazyk: English
Default: Ano
Forced: Ne

Text
ID: 3
Formát: UTF-8
CodecID: S_TEXT/UTF8
/: UTF-8 Plain Text
Duration/String: 1 h 0 min
Bit rate: 0 b/s
ElementCount: 6
StreamSize/String: 125 Bytes (0%)
Jazyk: English
Default: Ano
Forced : Ano


Download:
  Kód:   Vybrat vše
http://fastshare.cz/8357935/kingsman.the.golden.circle.2017.720p.bluray.x264-cz.en.sparks.mkv



kingsman-zlaty-kruh-kingsman-the-golden-circle-2017-1080phd-cz.en.mkv

ingsman Zlatý kruh Kingsman The Golden Circle (2017)[1080pHD].mkv
Formát: Matroska
Format_Version: Version 4 / Version 2
Veľkosť súboru: 16,6 GiB
Trvanie: 2 h 21 min
Celkový dátový tok: 16,8 Mb/s
Dátum zakódovania: UTC 2017-12-01 21:28:52
Použitý software: mkvmerge v13.0.0 ('The Juggler';) 64bit
Zakódoval: libebml v1.3.4 + libmatroska v1.4.5

Video
ID: 1
Formát: AVC
Formát/Info: Advanced Video Codec
Profil formátu: High@L4.1
Format_Settings_CABAC/String: Áno
Format_Settings_RefFrames/String: 5snímok
Označenie kodeku: V_MPEG4/ISO/AVC
Trvanie: 2 h 21 min
Dátový tok: 11,7 Mb/s
Šírka: 1 920 pixelov
Výška: 804 pixelov
Pomer strán: 2,40:1
Režim frekvencie snímok: Konštantný
Frekvencia snímok: 23,976 (24000/1001) snímok/sek.
ColorSpace: YUV
ChromaSubsampling/String: 4:2:0
BitDepth/String: 8 bitov
ScanType/String: Progresívne
Bitov/(Bod*Snímka): 0.316
StreamSize/String: 11,5 GiB (70%)
Titul: Avisynth @ HDChina
Zakódoval : x264 core 151 r2836+45 cabfa1f 7mod [8-bit@all X86_64]
Nastavenie kodéru: cabac=1 / ref=5 / deblock=1:-3:-3 / analyse=0x3:0x133 / me=umh / subme=11 / psy=1 / fade_compensate=0.00 / psy_rd=1.00:0.00 / mixed_ref=1 / me_range=48 / chroma_me=1 / trellis=2 / 8x8dct=1 / cqm=0 / deadzone=21,11 / fast_pskip=0 / chroma_qp_offset=-2 / threads=16 / lookahead_threads=4 / sliced_threads=0 / nr=0 / decimate=0 / interlaced=0 / bluray_compat=0 / constrained_intra=0 / fgo=0 / bframes=10 / b_pyramid=2 / b_adapt=2 / b_bias=0 / direct=3 / weightb=1 / open_gop=0 / weightp=2 / keyint=240 / keyint_min=24 / scenecut=40 / intra_refresh=0 / rc=crf / mbtree=0 / crf=16.8000 / qcomp=0.60 / qpmin=0:0:0 / qpmax=69:69:69 / qpstep=4 / ip_ratio=1.30 / pb_ratio=1.20 / aq=3:1.00 / aq-sensitivity=10.00 / aq-factor=1.00:1.00:1.00 / aq2=0 / aq3=0
Jazyk: Anglicky
Default: Áno
Forced: Nie
colour_range: Limited
colour_primaries: BT.709
transfer_characteristics: BT.709
matrix_coefficients: BT.709

Audio
ID: 2
Formát: DTS
Formát/Info: Digital Theater Systems
Profil formátu: MA / Core
Režim: 16
Format_Settings_Endianness: Big
Označenie kodeku: A_DTS
Trvanie: 2 h 21 min
Režim dátového toku: Variabilný dátový tok / Konštantný dátový tok
Dátový tok: 5 129 kb/s / 1 509 kb/s
Kanál(y): 8 kanálov / 6 kanálov
Channel positions: Front: L C R, Side: L R, Back: L R, LFE / Front: L C R, Side: L R, LFE
Sampling rate: 48,0 kHz
Frekvencia snímok: 93,750 snímok/sek. (512 SPF)
BitDepth/String: 24 bity
Compression_Mode/String: / Lossy
StreamSize/String: 5,05 GiB (30%)
Jazyk: Anglicky
Default: Áno
Forced: Nie
Download:
  Kód:   Vybrat vše
http://fastshare.cz/8363706/kingsman-zlaty-kruh-kingsman-the-golden-circle-2017-1080phd-cz.en.mkv
<<

L0K0M0T1V


Pokročilý


Užívateľ

ID Užívateľa: 23474

Registrován: 03 lis 2017, 14:29



Příspěvky: 432
(Zobraziť: Všetko /Témy)

Poďakoval som: 0 krát

Poďakovali my: 0 krát



Peňazí na ruke: 5,054.35



Karma: 0

Příspěvek 27 pro 2017, 17:04

Kingsman: Zlatý kruh / Kingsman The Golden Circle (2017)

Kingsman: Zlatý kruh / Kingsman The Golden Circle / 2017


Kingsman.The.Golden.Circle.2017.720p.BluRay.x264.5.1.CZ
Kingsman.The.Golden.Circle.2017.1080p.BluRay.x264.5.1.CZ


Audio: CZ (5.1-bluray), EN
Subtitles: CZ(f), CZ

Obrázek

  Kód:   Vybrat vše
Info:

https://www.csfd.cz/film/52975
http://www.imdb.com/title/tt4649466/


Kingsman.The.Golden.Circle.2017.720p.BluRay.x264.5.1.CZ
  Kód:   Vybrat vše
Format            : Matroska at 7 104 kb/s
Length            : 7.00 GiB for 2 h 21 min 2 s 304 ms

Video #0          : AVC at 5 146 kb/s
Aspect            : 1280 x 536 (2.388) at 23.976 fps

Audio #0          : AC-3 at 448 kb/s
Infos             : 6 channels, 48.0 kHz
Language          : cs

Audio #1          : DTS at 1 509 kb/s
Infos             : 6 channels, 48.0 kHz
Language          : en

Text #0           : UTF-8
Language          : cs

Text #1           : UTF-8
Language          : cs


  Kód:   Vybrat vše
http://fastshare.cz/8412594/kzk-h7.mkv

nebo

http://fastshare.cz/8412598/kzk-h7.part1.rar
http://fastshare.cz/8412603/kzk-h7.part2.rar
http://fastshare.cz/8412606/kzk-h7.part3.rar





********



Kingsman.The.Golden.Circle.2017.1080p.BluRay.x264.5.1.CZ
  Kód:   Vybrat vše
Info
Format            : Matroska at 10.4 Mb/s
Length            : 10.3 GiB for 2 h 21 min 2 s 304 ms

Video #0          : AVC at 8 473 kb/s
Aspect            : 1920 x 808 (2.376) at 23.976 fps

Audio #0          : AC-3 at 448 kb/s
Infos             : 6 channels, 48.0 kHz
Language          : cs

Audio #1          : DTS at 1 509 kb/s
Infos             : 6 channels, 48.0 kHz
Language          : en

Text #0           : UTF-8
Language          : cs

Text #1           : UTF-8
Language          : cs


  Kód:   Vybrat vše
http://fastshare.cz/8412611/kzk-h8.mkv

nebo

http://fastshare.cz/8412612/kzk-h8.part1.rar
http://fastshare.cz/8412618/kzk-h8.part2.rar
http://fastshare.cz/8412622/kzk-h8.part3.rar
http://fastshare.cz/8412625/kzk-h8.part4.rar
kombi
https://rapidu.net/5122966639/kzk_h8.part1.rar
... kombi ...


PASSWORD: NO
REUPLOAD NEDĚLÁM
Záznam pro opravu dat 5%
Naposledy upravil Stanley dne 20 úno 2018, 21:35, celkově upraveno 2
Důvod: Smazány mrtvé linky

V případě že ukazuje po stažení souboru z Fastshare u souboru 0MB je to způsobeno že to stahujete přes volné stahování, soubory jsou v pořádku a při stažení přes kredit je i velikost těchto souborů v pořádku.
<<

browing3006


Profesionál


Uploader

ID Užívateľa: 21287

Registrován: 26 kvě 2015, 02:41



Příspěvky: 889
(Zobraziť: Všetko /Témy)

Poďakoval som: 0 krát

Poďakovali my: 4 krát



Peňazí na ruke: 8,869.95



Karma: 0

Příspěvek 30 pro 2017, 06:30

Kingsman: Zlatý kruh / Kingsman The Golden Circle (2017)

Kingsman: Zlatý kruh / Kingsman The Golden Circle (2017)

CSFD:

  Kód:   Vybrat vše
https://www.csfd.cz/film/52975
http://www.imdb.com/title/tt4649466/


Obrázek

Kingsman.The.Golden.Circle.2017.720p.BluRay.x264.DD5.1.CZ
Kingsman.The.Golden.Circle.2017.1080p.BluRay.x264.DD5.1.CZ
Kingsman.The.Golden.Circle.2017.1080p.BluRay.DTS.REMUX.AVC.DD5.1.CZ


Kingsman.The.Golden.Circle.2017.720p.BluRay.x264.DD5.1.CZ
Jazyk: Czech 5.1 448 Kbps , English 5.1 640 Kbps
Subtitles: Czech Forced , Czech , Slovak , English

iNFO

  Kód:   Vybrat vše
Formát                                   : Matroska
Format_Version                           : Version 4 / Version 2
Velikost souboru                         : 6,15 GiB
Duration/String                          : 2h 21mn
Celkový BitRate                          : 6 244 Kbps
Encoded date                             : UTC 2017-12-28 20:08:53
Použitý software                         : mkvmerge v6.2.0 ('Promised Land') built on Apr 28 2013 12:22:01
Enkódoval                                : libebml v1.3.0 + libmatroska v1.4.0

Video
ID                                       : 1
Formát                                   : AVC
Formát/                                  : Advanced Video Codec
Format_Profile                           : High@L4.1
Format_Settings_CABAC/String             : Ano
Format_Settings_RefFrames/String         : 5 frame
CodecID                                  : V_MPEG4/ISO/AVC
Duration/String                          : 2h 21mn
Bit rate                                 : 5 146 Kbps
Šířka                                    : 1 280pixely
Výška                                    : 536pixely
Poměr stran                              : 2,40:1
Frame rate                               : 23,976 fps
ColorSpace                               : YUV
ChromaSubsampling                        : 4:2:0
BitDepth/String                          : 8 bits
ScanType/String                          : Progressive
Bits/(Pixel*Frame)                       : 0.313
StreamSize/String                        : 4,96 GiB (81%)
Enkódoval                                : x264 core 152 r2851 ba24899
Nastavení enkoderu                       : cabac=1 / ref=5 / deblock=1:0:0 / analyse=0x3:0x133 /
me=umh / subme=7 / psy=1 / psy_rd=1.00:0.00 / mixed_ref=1 / me_range=16 / chroma_me=1 / trellis=1 /
 8x8dct=1 / cqm=0 / deadzone=21,11 / fast_pskip=0 / chroma_qp_offset=-2 / threads=17 / lookahead_thre
ads=2 / sliced_threads=0 / nr=0 / decimate=1 / interlaced=0 / bluray_compat=0 / constrained_intra=0 /
 bframes=3 / b_pyramid=2 / b_adapt=1 / b_bias=0 / direct=1 / weightb=1 / open_gop=0 / weightp=2 / keyin
t=250 / keyint_min=23 / scenecut=40 / intra_refresh=0 / rc_lookahead=40 / rc=2pass / mbtree=1 / bitrat
e=5146 / ratetol=1.0 / qcomp=0.60 / qpmin=0 / qpmax=69 / qpstep=4 / cplxblur=20.0 / qblur=0.5 / ip_rat
io=1.40 / aq=1:1.00
Jazyk                                    : English
Default                                  : Ano
Forced                                   : Ne
DURATION                                 : 02:21:02.246000000
NUMBER_OF_FRAMES                         : 202891
NUMBER_OF_BYTES                          : 5442022262
_STATISTICS_WRITING_APP                  : mkvmerge v17.0.0 ('Be Ur Friend') 64-bit
_STATISTICS_WRITING_DATE_UTC             : 2017-11-30 01:11:51
_STATISTICS_TAGS                         : BPS DURATION NUMBER_OF_FRAMES NUMBER_OF_BYTES

Audio #1
ID                                       : 2
Formát                                   : AC-3
Formát/                                  : Audio Coding 3
Format_Settings_ModeExtension            : CM (complete main)
Format_Settings_Endianness               : Big
CodecID                                  : A_AC3
Duration/String                          : 2h 21mn
Bit rate                                 : 640 Kbps
Kanál(y)                                 : 6 kanály
Channel positions                        : Front: L C R, Side: L R, LFE
Sampling rate                            : 48,0 KHz
BitDepth/String                          : 16 bits
StreamSize/String                        : 646 MiB (10%)
Titul                                    : English  AC-3 @ 5.1  640kbps
Jazyk                                    : English
Default                                  : Ne
Forced                                   : Ne

Audio #2
ID                                       : 3
Formát                                   : AC-3
Formát/                                  : Audio Coding 3
Format_Settings_ModeExtension            : CM (complete main)
Format_Settings_Endianness               : Big
CodecID                                  : A_AC3
Duration/String                          : 2h 21mn
Bit rate                                 : 448 Kbps
Kanál(y)                                 : 6 kanály
Channel positions                        : Front: L C R, Side: L R, LFE
Sampling rate                            : 48,0 KHz
BitDepth/String                          : 16 bits
StreamSize/String                        : 452 MiB (7%)
Titul                                    : Czech  AC-3 @ 5.1  480kbps
Jazyk                                    : Czech
Default                                  : Ano
Forced                                   : Ano

Text #1
ID                                       : 4
Formát                                   : UTF-8
CodecID                                  : S_TEXT/UTF8
/                                        : UTF-8 Plain Text
Titul                                    : Czech forced
Jazyk                                    : Czech
Default                                  : Ano
Forced                                   : Ano

Text #2
ID                                       : 5
Formát                                   : UTF-8
CodecID                                  : S_TEXT/UTF8
/                                        : UTF-8 Plain Text
Titul                                    : full
Jazyk                                    : Czech
Default                                  : Ne
Forced                                   : Ne

Text #3
ID                                       : 6
Formát                                   : UTF-8
CodecID                                  : S_TEXT/UTF8
/                                        : UTF-8 Plain Text
Titul                                    : full
Jazyk                                    : Slovak
Default                                  : Ne
Forced                                   : Ne

Text #4
ID                                       : 7
Formát                                   : PGS
MuxingMode                               : zlib
CodecID                                  : S_HDMV/PGS
/                                        : The same subtitle format used on BDs/HD-DVDs
Jazyk                                    : English
Default                                  : Ne
Forced                                   : Ne

Text #5
ID                                       : 8
Formát                                   : PGS
MuxingMode                               : zlib
CodecID                                  : S_HDMV/PGS
/                                        : The same subtitle format used on BDs/HD-DVDs
Jazyk                                    : English
Default                                  : Ne
Forced                                   : Ne


Obrázek
  Kód:   Vybrat vše
http://fastshare.cz/8424073/sagmat45.part1.rar
http://fastshare.cz/8424135/sagmat45.part2.rar
http://fastshare.cz/8424198/sagmat45.part3.rar
http://fastshare.cz/8424269/sagmat45.part4.rar

Přidán záznam na opravu dat 5%.
Kingsman.The.Golden.Circle.2017.1080p.BluRay.x264.DD5.1.CZ
Jazyk: Czech 5.1 448 Kbps , English 5.1 640 Kbps
Subtitles: Czech Forced , Czech , Slovak , English

iNFO

  Kód:   Vybrat vše
Formát                                   : Matroska
Format_Version                           : Version 4 / Version 2
Velikost souboru                         : 9,43 GiB
Duration/String                          : 2h 21mn
Celkový BitRate                          : 9 571 Kbps
Encoded date                             : UTC 2017-12-28 19:32:06
Použitý software                         : mkvmerge v6.2.0 ('Promised Land') built on Apr 28 2013 12:22:01
Enkódoval                                : libebml v1.3.0 + libmatroska v1.4.0

Video
ID                                       : 1
Formát                                   : AVC
Formát/                                  : Advanced Video Codec
Format_Profile                           : High@L4.1
Format_Settings_CABAC/String             : Ano
Format_Settings_RefFrames/String         : 5 frame
CodecID                                  : V_MPEG4/ISO/AVC
Duration/String                          : 2h 21mn
Bit rate                                 : 8 473 Kbps
Šířka                                    : 1 920pixely
Výška                                    : 808pixely
Poměr stran                              : 2,40:1
Frame rate                               : 23,976 fps
ColorSpace                               : YUV
ChromaSubsampling                        : 4:2:0
BitDepth/String                          : 8 bits
ScanType/String                          : Progressive
Bits/(Pixel*Frame)                       : 0.228
StreamSize/String                        : 8,17 GiB (87%)
Enkódoval                                : x264 core 152 r2851 ba24899
Nastavení enkoderu                       : cabac=1 / ref=5 / deblock=1:-3:-3 / analyse=0x3:0x113 /
me=umh / subme=8 / psy=1 / psy_rd=1.00:0.00 / mixed_ref=1 / me_range=16 / chroma_me=1 / trellis=1 /
8x8dct=1 / cqm=0 / deadzone=21,11 / fast_pskip=1 / chroma_qp_offset=-2 / threads=25 / lookahead_thre
ads=4 / sliced_threads=0 / nr=0 / decimate=1 / interlaced=0 / bluray_compat=0 / constrained_intra=0 /
 bframes=3 / b_pyramid=2 / b_adapt=1 / b_bias=0 / direct=3 / weightb=1 / open_gop=0 / weightp=2 / key
int=240 / keyint_min=24 / scenecut=40 / intra_refresh=0 / rc_lookahead=50 / rc=2pass / mbtree=1 / bit
rate=8473 / ratetol=1.0 / qcomp=0.60 / qpmin=0 / qpmax=69 / qpstep=4 / cplxblur=20.0 / qblur=0.5 / ip_
ratio=1.40 / aq=1:1.00
Default                                  : Ano
Forced                                   : Ne
DURATION                                 : 02:21:02.246000000
NUMBER_OF_FRAMES                         : 202891
NUMBER_OF_BYTES                          : 8961098508
_STATISTICS_WRITING_APP                  : mkvmerge v18.0.0 ('Apricity') 64-bit
_STATISTICS_WRITING_DATE_UTC             : 2017-11-30 02:01:19
_STATISTICS_TAGS                         : BPS DURATION NUMBER_OF_FRAMES NUMBER_OF_BYTES

Audio #1
ID                                       : 2
Formát                                   : AC-3
Formát/                                  : Audio Coding 3
Format_Settings_ModeExtension            : CM (complete main)
Format_Settings_Endianness               : Big
CodecID                                  : A_AC3
Duration/String                          : 2h 21mn
Bit rate                                 : 640 Kbps
Kanál(y)                                 : 6 kanály
Channel positions                        : Front: L C R, Side: L R, LFE
Sampling rate                            : 48,0 KHz
BitDepth/String                          : 16 bits
StreamSize/String                        : 646 MiB (7%)
Titul                                    : English  AC-3 @ 5.1  640kbps
Jazyk                                    : English
Default                                  : Ne
Forced                                   : Ne

Audio #2
ID                                       : 3
Formát                                   : AC-3
Formát/                                  : Audio Coding 3
Format_Settings_ModeExtension            : CM (complete main)
Format_Settings_Endianness               : Big
CodecID                                  : A_AC3
Duration/String                          : 2h 21mn
Bit rate                                 : 448 Kbps
Kanál(y)                                 : 6 kanály
Channel positions                        : Front: L C R, Side: L R, LFE
Sampling rate                            : 48,0 KHz
BitDepth/String                          : 16 bits
StreamSize/String                        : 452 MiB (5%)
Titul                                    : Czech  AC-3 @ 5.1  480kbps
Jazyk                                    : Czech
Default                                  : Ano
Forced                                   : Ano

Text #1
ID                                       : 4
Formát                                   : UTF-8
CodecID                                  : S_TEXT/UTF8
/                                        : UTF-8 Plain Text
Titul                                    : Czech forced
Jazyk                                    : Czech
Default                                  : Ano
Forced                                   : Ano

Text #2
ID                                       : 5
Formát                                   : UTF-8
CodecID                                  : S_TEXT/UTF8
/                                        : UTF-8 Plain Text
Titul                                    : full
Jazyk                                    : Czech
Default                                  : Ne
Forced                                   : Ne

Text #3
ID                                       : 6
Formát                                   : UTF-8
CodecID                                  : S_TEXT/UTF8
/                                        : UTF-8 Plain Text
Titul                                    : full
Jazyk                                    : Slovak
Default                                  : Ne
Forced                                   : Ne

Text #4
ID                                       : 7
Formát                                   : PGS
MuxingMode                               : zlib
CodecID                                  : S_HDMV/PGS
/                                        : The same subtitle format used on BDs/HD-DVDs
Jazyk                                    : English
Default                                  : Ne
Forced                                   : Ne

Text #5
ID                                       : 8
Formát                                   : PGS
MuxingMode                               : zlib
CodecID                                  : S_HDMV/PGS
/                                        : The same subtitle format used on BDs/HD-DVDs
Jazyk                                    : English
Default                                  : Ne
Forced                                   : Ne


Obrázek
  Kód:   Vybrat vše
http://fastshare.cz/8424342/sagmat55.part1.rar
http://fastshare.cz/8424411/sagmat55.part2.rar
http://fastshare.cz/8424502/sagmat55.part3.rar
http://fastshare.cz/8424688/sagmat55.part4.rar
http://fastshare.cz/8424754/sagmat55.part5.rar
http://fastshare.cz/8424788/sagmat55.part6.rar

Přidán záznam na opravu dat 5%.
Kingsman.The.Golden.Circle.2017.1080p.BluRay.DTS.REMUX.AVC.DD5.1.CZ
Jazyk: Czech 5.1 448 Kbps , English 5.1 DTS 1 509 Kbps
Subtitles: Czech Forced , Czech , Slovak , English

iNFO

  Kód:   Vybrat vše
Formát                                   : Matroska
Format_Version                           : Version 4 / Version 2
Velikost souboru                         : 25,0 GiB
Duration/String                          : 2h 21mn
Celkový BitRate                          : 25,4 Mbps
Encoded date                             : UTC 2017-12-28 20:14:19
Použitý software                         : mkvmerge v6.2.0 ('Promised Land') built on Apr 28 2013 12:22:01
Enkódoval                                : libebml v1.3.0 + libmatroska v1.4.0
Obal                                     : Yes / Yes / Yes / Yes

Video
ID                                       : 1
Formát                                   : AVC
Formát/                                  : Advanced Video Codec
Format_Profile                           : High@L4.1
Format_Settings_CABAC/String             : Ano
Format_Settings_RefFrames/String         : 4 frame
CodecID                                  : V_MPEG4/ISO/AVC
Duration/String                          : 2h 21mn
Bit rate                                 : 22,9 Mbps
BitRate_Maximum/String                   : 37,0 Mbps
Šířka                                    : 1 920pixely
Výška                                    : 1 080pixely
Poměr stran                              : 16:9
Frame rate                               : 23,976 fps
ColorSpace                               : YUV
ChromaSubsampling                        : 4:2:0
BitDepth/String                          : 8 bits
ScanType/String                          : Progressive
Bits/(Pixel*Frame)                       : 0.461
StreamSize/String                        : 22,6 GiB (90%)
Jazyk                                    : English
Default                                  : Ne
Forced                                   : Ne

Audio #1
ID                                       : 2
Formát                                   : DTS
Formát/                                  : Digital Theater Systems
Format_Settings_Mode                     : 16
Format_Settings_Endianness               : Big
CodecID                                  : A_DTS
Duration/String                          : 2h 21mn
Bit rate                                 : 1 509 Kbps
Kanál(y)                                 : 6 kanály
Channel positions                        : Front: L C R, Side: L R, LFE
Sampling rate                            : 48,0 KHz
BitDepth/String                          : 24 bits
StreamSize/String                        : 1,49 GiB (6%)
Titul                                    : DTS
Jazyk                                    : English
Default                                  : Ne
Forced                                   : Ne

Audio #2
ID                                       : 3
Formát                                   : AC-3
Formát/                                  : Audio Coding 3
Format_Settings_ModeExtension            : CM (complete main)
Format_Settings_Endianness               : Big
CodecID                                  : A_AC3
Duration/String                          : 2h 21mn
Bit rate                                 : 448 Kbps
Kanál(y)                                 : 6 kanály
Channel positions                        : Front: L C R, Side: L R, LFE
Sampling rate                            : 48,0 KHz
BitDepth/String                          : 16 bits
StreamSize/String                        : 452 MiB (2%)
Titul                                    : Czech  AC-3 @ 5.1  480kbps
Jazyk                                    : Czech
Default                                  : Ano
Forced                                   : Ano

Text #1
ID                                       : 4
Formát                                   : UTF-8
CodecID                                  : S_TEXT/UTF8
/                                        : UTF-8 Plain Text
Titul                                    : Czech forced
Jazyk                                    : Czech
Default                                  : Ano
Forced                                   : Ano

Text #2
ID                                       : 5
Formát                                   : UTF-8
CodecID                                  : S_TEXT/UTF8
/                                        : UTF-8 Plain Text
Titul                                    : full
Jazyk                                    : Czech
Default                                  : Ne
Forced                                   : Ne

Text #3
ID                                       : 6
Formát                                   : UTF-8
CodecID                                  : S_TEXT/UTF8
/                                        : UTF-8 Plain Text
Titul                                    : full
Jazyk                                    : Slovak
Default                                  : Ne
Forced                                   : Ne

Text #4
ID                                       : 7
Formát                                   : PGS
MuxingMode                               : zlib
CodecID                                  : S_HDMV/PGS
/                                        : The same subtitle format used on BDs/HD-DVDs
Jazyk                                    : English
Default                                  : Ne
Forced                                   : Ne

Text #5
ID                                       : 8
Formát                                   : PGS
MuxingMode                               : zlib
CodecID                                  : S_HDMV/PGS
/                                        : The same subtitle format used on BDs/HD-DVDs
Jazyk                                    : English
Default                                  : Ne
Forced                                   : Ne


Obrázek
  Kód:   Vybrat vše
http://fastshare.cz/8425142/sagmat65.part01.rar
http://fastshare.cz/8425249/sagmat65.part02.rar
http://fastshare.cz/8425310/sagmat65.part03.rar
http://fastshare.cz/8425375/sagmat65.part04.rar
http://fastshare.cz/8425437/sagmat65.part05.rar
http://fastshare.cz/8425510/sagmat65.part06.rar
http://fastshare.cz/8425569/sagmat65.part07.rar
http://fastshare.cz/8425610/sagmat65.part08.rar
http://fastshare.cz/8425652/sagmat65.part09.rar
http://fastshare.cz/8425695/sagmat65.part10.rar
http://fastshare.cz/8425731/sagmat65.part11.rar
http://fastshare.cz/8425761/sagmat65.part12.rar
http://fastshare.cz/8425794/sagmat65.part13.rar
http://fastshare.cz/8425835/sagmat65.part14.rar
http://fastshare.cz/8425869/sagmat65.part15.rar

Přidán záznam na opravu dat 5%.
<<

Sonty


Nováčik


Užívateľ

ID Užívateľa: 22750

Registrován: 27 led 2016, 20:09



Příspěvky: 76
(Zobraziť: Všetko /Témy)

Poďakoval som: 0 krát

Poďakovali my: 0 krát



Peňazí na ruke: 710.60



Karma: 0

Příspěvek 19 úno 2018, 22:50

Kingsman: Zlatý kruh / Kingsman The Golden Circle (2017)

Kingsman: Zlatý kruh / Kingsman: The Golden Circle (2017)
Video/Zdroj: BluRay 1080p
Audio: CZ 5.1ch AC-3, EN 5.1ch DTS
Titulky: CZ

Obrázek

  Kód:   Vybrat vše
https://www.csfd.cz/film/52975-kingsman-zlaty-kruh/prehled/
https://www.imdb.com/title/tt4649466/?ref_=nv_sr_1


Format : Matroska
Format version : Version 4 / Version 2
File size : 10.3 GiB
Duration : 2 h 21 min
Overall bit rate : 10.4 Mb/s

Video
Format : AVC
Format profile : High@L4.1
Duration : 2 h 21 min
Bit rate : 8 473 kb/s
Width : 1 920 pixels
Height : 808 pixels
Display aspect ratio : 2.40:1
Frame rate mode : Constant
Frame rate : 23.976 (24000/1001) FPS
Color space : YUV
Chroma subsampling : 4:2:0
Bit depth : 8 bits
Scan type : Progressive
Bits/(Pixel*Frame) : 0.228
Stream size : 8.14 GiB (79%)

Audio #1
Format : AC-3
Duration : 2 h 21 min
Bit rate mode : Constant
Bit rate : 448 kb/s
Channel(s) : 6 channels
Channel positions : Front: L C R, Side: L R, LFE
Sampling rate : 48.0 kHz
Frame rate : 31.250 FPS (1536 SPF)
Bit depth : 16 bits
Compression mode : Lossy
Stream size : 452 MiB (4%)
Language : Czech
Default : Yes
Forced : Yes

Audio #2
Format : DTS
Duration : 2 h 21 min
Bit rate mode : Constant
Bit rate : 1 509 kb/s
Channel(s) : 6 channels
Channel positions : Front: L C R, Side: L R, LFE
Sampling rate : 48.0 kHz
Frame rate : 93.750 FPS (512 SPF)
Bit depth : 24 bits
Compression mode : Lossy
Stream size : 1.49 GiB (14%)
Language : English
Forced : No

Text #1
Format : UTF-8
Language : Czech
Default : Yes
Forced : Yes

Text #2
Format : UTF-8
Language : Czech
Default : No
Forced : No


  Kód:   Vybrat vše
http://fastshare.cz/8693895/ktgc.part1.rar
http://fastshare.cz/8693975/ktgc.part2.rar
http://fastshare.cz/8694117/ktgc.part3.rar
http://fastshare.cz/8694228/ktgc.part4.rar
http://fastshare.cz/8694326/ktgc.part5.rar
http://fastshare.cz/8694365/ktgc.part6.rar


Bez hesla. Balené bez kompresie. Pridaný záznam pre opravu dát 5%.




Zpět na HD filmy cz/sk



Kdo je online

Uživatelé procházející toto fórum: Žádní registrovaní uživatelé a 0 návštevníků

Powered by phpBB © 2000, 2002, 2005, 2007 phpBB Group.
Designed by ST Software.
Installed phpBB version: 3.0.12
Český překlad – phpBB.cz
Karma functions powered by Karma MOD © 2007, 2009 m157y
phpBB SEO
Protected by Anti-Spam ACP
TOPlist