Příspěvek 20 srp 2018, 12:07

Kong: Ostrov lebek / Kong: Skull Island (2017)

Kong: Ostrov lebek / Kong: Skull Island (2017)
Video: Bluray 1080p
Audio: CZ AC-3 5.1ch, EN AC-3 5.1ch
Titulky: CZ forced, CZ, EN

Obrázek

CSFD / IMDB
  Kód:   Vybrat vše
https://www.csfd.cz/film/381274-kong-ostrov-lebek/prehled/
https://www.imdb.com/title/tt3731562/?ref_=nv_sr_3


INFO
Format : Matroska
Format version : Version 4 / Version 2
File size : 15.8 GiB
Duration : 1 h 58 min
Overall bit rate : 19.1 Mb/s

Video
Format : AVC
Format profile : High@L4.1
Duration : 1 h 58 min
Bit rate : 18.0 Mb/s
Width : 1 920 pixels
Height : 800 pixels
Display aspect ratio : 2.40:1
Frame rate mode : Constant
Frame rate : 23.976 (24000/1001) FPS
Color space : YUV
Chroma subsampling : 4:2:0
Bit depth : 8 bits
Scan type : Progressive
Bits/(Pixel*Frame) : 0.489
Stream size : 14.6 GiB (92%)

Audio #1
Format : AC-3
Duration : 1 h 58 min
Bit rate mode : Constant
Bit rate : 448 kb/s
Channel(s) : 6 channels
Channel positions : Front: L C R, Side: L R, LFE
Sampling rate : 48.0 kHz
Frame rate : 31.250 FPS (1536 SPF)
Bit depth : 16 bits
Compression mode : Lossy
Stream size : 379 MiB (2%)
Language : Czech
Default : Yes
Forced : Yes

Audio #2
Format : AC-3
Duration : 1 h 58 min
Bit rate mode : Constant
Bit rate : 640 kb/s
Channel(s) : 6 channels
Channel positions : Front: L C R, Side: L R, LFE
Sampling rate : 48.0 kHz
Frame rate : 31.250 FPS (1536 SPF)
Bit depth : 16 bits
Compression mode : Lossy
Stream size : 542 MiB (3%)
Language : English
Default : No
Forced : No

Text #1
Format : UTF-8
Language : Czech
Default : Yes
Forced : Yes

Text #2
Format : UTF-8
Language : Czech
Default : No
Forced : No

Text #3
Format : UTF-8
Language : English
Default : No
Forced : No

Text #4
Format : UTF-8
Language : English
Default : No
Forced : No


Fastshare
  Kód:   Vybrat vše
http://fastshare.cz/10191536/kol.part01.rar
http://fastshare.cz/10191544/kol.part02.rar
http://fastshare.cz/10191550/kol.part03.rar
http://fastshare.cz/10191557/kol.part04.rar
http://fastshare.cz/10191564/kol.part05.rar
http://fastshare.cz/10191570/kol.part06.rar
http://fastshare.cz/10191575/kol.part07.rar
http://fastshare.cz/10191589/kol.part08.rar
http://fastshare.cz/10191599/kol.part09.rar


Bez hesla. Balené bez kompresie. Pridaný záznam pre opravu dát 5%.
Naposledy upravil Stanley dne 20 srp 2018, 19:01, celkově upraveno 1
Důvod: Kontrola příspěvku