Loading...
Oznam

:welcome:



warpark-Forum


Legend / Legendy zločinu (2015)

Moderátor: drobec

<<

hexadron


Majster


Uploader

ID Užívateľa: 21726

Registrován: 12 srp 2015, 11:55



Příspěvky: 1091
(Zobraziť: Všetko /Témy)

Poďakoval som: 0 krát

Poďakovali my: 4 krát



Peňazí na ruke: 14,762.55



Karma: 0

Příspěvek 18 led 2016, 12:09

Legend / Legendy zločinu (2015)

Legend / Legendy zločinu (2015)

RELEASE
Legend.2015.1080p.BluRay.X264-AMIABLE

Obrázek

ČSFD/IMDB
  Kód:   Vybrat vše
http://www.csfd.cz/film/379272-legendy-zlocinu/
http://www.imdb.com/title/tt3569230/


Legend.2015.1080p.BluRay.X264-AMIABLE
AUDIO: EN DTS 5.1
TITULKY: CZ, EN

INFO
  Kód:   Vybrat vše
Format            : Matroska at 9 554 kb/s
Length            : 8,74 GiB for 2h 11 min 2 sek. 16 ms

Video #0          : AVC at 8 787 kb/s
Aspect            : 1920 x 808 (2.376) at 24.000 fps

Audio #0          : DTS at 768 kb/s
Infos             : 6 kanálov, 48,0 kHz
Language          : en

Text #0           : UTF-8
Language          : en

Text #1           : UTF-8
Language          : en

Text #2           : UTF-8
Language          : cs


DOWNLOAD
  Kód:   Vybrat vše
https://bitster.cz/file/6c6ae3
https://bitster.cz/file/5939b5
https://bitster.cz/file/776537
https://bitster.cz/file/553d68
https://bitster.cz/file/4dabe4


  Kód:   Vybrat vše
http://www.uloz.to/xXhSxn9F/gele9-mkv


  Kód:   Vybrat vše
http://webshare.cz/file/6zs6v75Ae6/
Naposledy upravil Stanley dne 19 čer 2018, 17:56, celkově upraveno 1
Důvod: Smazány mrtvé linky
<<

Sonty


Amatér


Užívateľ

ID Užívateľa: 22750

Registrován: 27 led 2016, 20:09



Příspěvky: 153
(Zobraziť: Všetko /Témy)

Poďakoval som: 0 krát

Poďakovali my: 0 krát



Peňazí na ruke: 1,535.60



Karma: 0

Příspěvek 10 zář 2018, 16:47

Legend / Legendy zločinu (2015)

Legendy zločinu / Legend (2015)
Video/Zdroj: BluRay 1080p
Audio: EN DTS 5.1ch
Subtitles: CZ, EN

Obrázek

CSFD / IMDB
  Kód:   Vybrat vše
http://www.csfd.cz/film/379272-legendy-zlocinu/prehled/
https://www.imdb.com/title/tt3569230/?ref_=nv_sr_4


INFO
  Kód:   Vybrat vše
Format                                   : Matroska
Format version                           : Version 4 / Version 2
File size                                : 8.74 GiB
Duration                                 : 2h 11mn
Overall bit rate                         : 9 554 Kbps

Video
Format                                   : AVC
Format profile                           : High@L4.1
Duration                                 : 2h 11mn
Bit rate                                 : 8 787 Kbps
Width                                    : 1 920 pixels
Height                                   : 808 pixels
Display aspect ratio                     : 2.40:1
Frame rate mode                          : Constant
Frame rate                               : 24.000 fps
Color space                              : YUV
Chroma subsampling                       : 4:2:0
Bit depth                                : 8 bits
Scan type                                : Progressive
Bits/(Pixel*Frame)                       : 0.236
Stream size                              : 7.87 GiB (90%)

Audio
Format                                   : DTS
Duration                                 : 2h 11mn
Bit rate mode                            : Constant
Bit rate                                 : 768 Kbps
Channel(s)                               : 6 channels
Channel positions                        : Front: L C R, Side: L R, LFE
Sampling rate                            : 48.0 KHz
Bit depth                                : 24 bits
Compression mode                         : Lossy
Stream size                              : 720 MiB (8%)
Language                                 : English
Default                                  : Yes
Forced                                   : No

Text #1
Format                                   : UTF-8
Language                                 : English
Default                                  : No
Forced                                   : No

Text #2
Format                                   : UTF-8
Language                                 : English
Default                                  : No
Forced                                   : No

Text #3
Format                                   : UTF-8
Language                                 : Czech
Default                                  : Yes
Forced                                   : No


Fastshare

  Kód:   Vybrat vše
http://fastshare.cz/10411002/legendy-zlocinu-the-legend-2015-1080p-en-cz-subtitles-bluray.mkv


  Kód:   Vybrat vše
http://fastshare.cz/9855465/lnd.part1.rar
http://fastshare.cz/9855473/lnd.part2.rar
http://fastshare.cz/9855478/lnd.part3.rar
http://fastshare.cz/9855481/lnd.part4.rar
http://fastshare.cz/9855487/lnd.part5.rar


Balené bez kompresie. Bez hesla. Pridaný záznam pre opravu dát 5%.




Zpět na HD filmy s titulky



Kdo je online

Uživatelé procházející toto fórum: Žádní registrovaní uživatelé a 0 návštevníků

Powered by phpBB © 2000, 2002, 2005, 2007 phpBB Group.
Designed by ST Software.
Installed phpBB version: 3.0.12
Český překlad – phpBB.cz
Karma functions powered by Karma MOD © 2007, 2009 m157y
phpBB SEO
Protected by Anti-Spam ACP
TOPlist