Příspěvek 11 led 2019, 19:27

Lesní duch / Evil Dead, The (1981)

Lesní duch / Evil Dead, The (1981)

Video/Zdroj: BDRip 1080p
Audio: CZ AC-3 5.1ch, EN AAC 2ch, EN AC-3 2ch
Titulky: CZ, EN


Obrázek

CSFD / IMDB
  Kód:   Vybrat vše
https://www.csfd.cz/film/7557-lesni-duch/prehled/
https://www.imdb.com/title/tt0083907/?ref_=nv_sr_2


INFO
Format : Matroska
Format version : Version 4 / Version 2
File size : 3.34 GiB
Duration : 1 h 25 min
Overall bit rate : 5 599 kb/s

Video
Format : AVC
Format profile : High@L4.1
Duration : 1 h 25 min
Bit rate : 5 000 kb/s
Width : 1 920 pixels
Height : 1 040 pixels
Display aspect ratio : 1.85:1
Frame rate mode : Constant
Frame rate : 23.976 (24000/1001) FPS
Color space : YUV
Chroma subsampling : 4:2:0
Bit depth : 8 bits
Scan type : Progressive
Bits/(Pixel*Frame) : 0.104
Stream size : 2.94 GiB (88%)

Audio #1
Format : AC-3
Duration : 1 h 25 min
Bit rate mode : Constant
Bit rate : 384 kb/s
Channel(s) : 6 channels
Channel positions : Front: L C R, Side: L R, LFE
Sampling rate : 48.0 kHz
Frame rate : 31.250 FPS (1536 SPF)
Bit depth : 16 bits
Compression mode : Lossy
Stream size : 235 MiB (7%)
Language : Czech

Audio #2
Format : AAC
Duration : 1 h 25 min
Bit rate : 96.0 kb/s
Channel(s) : 2 channels
Channel positions : Front: L R
Sampling rate : 48.0 kHz
Frame rate : 46.875 FPS (1024 SPF)
Compression mode : Lossy
Stream size : 58.7 MiB (2%)
Language : English

Audio #3
Format : AC-3
Duration : 1 h 25 min
Bit rate mode : Constant
Bit rate : 192 kb/s
Channel(s) : 2 channels
Channel positions : Front: L R
Sampling rate : 48.0 kHz
Frame rate : 31.250 FPS (1536 SPF)
Bit depth : 16 bits
Compression mode : Lossy
Stream size : 117 MiB (3%)
Language : English

Text #1
Format : UTF-8
Language : Czech
Default : No
Forced : No

Text #2
Format : UTF-8
Language : English
Default : No
Forced : No


FASTSHARE

  Kód:   Vybrat vše
http://fastshare.cz/11025127/lesni-duch-the-evil-dead-1981-1080p-cz-en-brrip.mkv