Příspěvek 22 srp 2019, 15:43

Mrázik / Morozko (1964)

Mrázik / Морозко (1964)

Video/Zdroj: DVDRip
Audio: SK AC-3 5.1ch


Obrázek

CSFD / IMDB
  Kód:   Vybrat vše
https://www.csfd.cz/film/33582-mrazik/prehled/
https://www.imdb.com/title/tt0058374/?ref_=nv_sr_1?ref_=nv_sr_1


INFO
Format : Matroska
Format version : Version 4 / Version 2
File size : 4.63 GiB
Duration : 1h 18mn
Overall bit rate : 8 415 Kbps

Video
Format : MPEG Video
Codec ID/Info : MPEG 1 or 2 Video
Duration : 1h 18mn
Bit rate : 8 000 Kbps
Width : 720 pixels
Height : 576 pixels
Display aspect ratio : 4:3
Frame rate mode : Constant
Frame rate : 25.000 fps
Standard : PAL
Color space : YUV
Chroma subsampling : 4:2:0
Bit depth : 8 bits
Scan type : Interlaced
Scan order : Top Field First
Compression mode : Lossy
Bits/(Pixel*Frame) : 0.772
Time code of first frame : 00:00:59:24
Time code source : Group of pictures header
GOP, Open/Closed : Open
GOP, Open/Closed of first f : Closed
Stream size : 4.38 GiB (95%)

Audio
Format : AC-3
Duration : 1h 18mn
Bit rate mode : Constant
Bit rate : 448 Kbps
Channel(s) : 6 channels
Channel positions : Front: L C R, Side: L R, LFE
Sampling rate : 48.0 KHz
Frame rate : 31.250 fps (1536 spf)
Compression mode : Lossy
Stream size : 253 MiB (5%)
Default : Yes
Forced : No


FASTSHARE

  Kód:   Vybrat vše
http://fastshare.cz/12056844/mrazik-1964-sk.mkv
Naposledy upravil Stanley dne 22 srp 2019, 20:55, celkově upraveno 1
Důvod: Oprava názvu tématu