Příspěvek 16 črc 2018, 12:38

Nespoutaný Django / Django Unchained (2012)

Nespoutaný Django / Django Unchained (2012)
Video/Zdroj: BluRay 1080p
Audio: CZ AC-3 5.1ch, EN DTS 5.1ch
Titulky: CZ, EN

Obrázek

  Kód:   Vybrat vše
https://www.csfd.cz/film/294824-nespoutany-django/prehled/
https://www.imdb.com/title/tt1853728/?ref_=nv_sr_1


Format : Matroska
Format version : Version 4 / Version 2
File size : 12.8 GiB
Duration : 2h 45mn
Overall bit rate : 11.1 Mbps

Video
Format : AVC
Format profile : High@L4.1
Duration : 2h 45mn
Bit rate : 8 900 Kbps
Width : 1 920 pixels
Height : 800 pixels
Display aspect ratio : 2.40:1
Frame rate mode : Constant
Frame rate : 23.976 fps
Color space : YUV
Chroma subsampling : 4:2:0
Bit depth : 8 bits
Scan type : Progressive
Bits/(Pixel*Frame) : 0.242
Stream size : 10.0 GiB (79%)

Audio #1
Format : AC-3
Duration : 2h 45mn
Bit rate mode : Constant
Bit rate : 640 Kbps
Channel(s) : 6 channels
Channel positions : Front: L C R, Side: L R, LFE
Sampling rate : 48.0 KHz
Bit depth : 16 bits
Compression mode : Lossy
Stream size : 757 MiB (6%)
Language : Czech

Audio #2
Format : DTS
Duration : 2h 45mn
Bit rate mode : Constant
Bit rate : 1 509 Kbps
Channel(s) : 6 channels
Channel positions : Front: L C R, Side: L R, LFE
Sampling rate : 48.0 KHz
Bit depth : 24 bits
Compression mode : Lossy
Stream size : 1.74 GiB (14%)
Language : English

Text #1
Format : UTF-8
Language : Czech

Text #2
Format : PGS
Language : Czech

Text #3
Format : UTF-8
Language : English


Fastshare
  Kód:   Vybrat vše
http://fastshare.cz/4243048/djunhd.part1.rar
http://fastshare.cz/10051912/djunhd.part2.rar
http://fastshare.cz/4243288/djunhd.part3.rar
http://fastshare.cz/10051915/djunhd.part4.rar
http://fastshare.cz/10051917/djunhd.part5.rar
http://fastshare.cz/4271777/djunhd.part6.rar
http://fastshare.cz/4271902/djunhd.part7.rar


Balené bez kompresie. Bez hesla. Pridaný záznam pre opravu dát 5%.