Loading...
Oznam

:welcome:



warpark-Forum


Pacific Rim: Uprising / Pacific Rim: Povstanie (2018)

Moderátor: drobec

Pravidla fóra
- Všechny linky této kategorie musí být v CODE, obrázky , screeny v IMG
- Používejte tlačítko HLEDÁM, abyste nezaložili duplicitní téma
- Název témy musi obsahovat originální název filmu/český název (rok výroby)

Boston Strangler, The / Bostonský případ (1968)

- V příspěvku musi být uvedené info o uploadu,cover,kvalita příspěvku,


Pokud nevíte,jak zjistit kvalitu příspěvku,použijte tento prográmek

  Kód:   Vybrat vše
http://www.stahuj.centrum.cz/multimedia/ostatni/mediainfo/



info o titulcích - zda jsou součástí,příp,.odkaz na titulky,
dále odkaz na csfd
- NEZAKLÁDEJTE DUPLICITNÍ TÉMATA !!!
- V hesle od RARu je zakázané použít název nebo link jiného warez fora !
- Příspěvky dávejte do správných kategorií
- Prosby o reupload zasílejte autorovi příspěvku daného filmu formou soukromé zprávy
- Nefunkční linky a příspěvky v rozporu s pravidly hlaste Moderátorům pomocí tlačítka " Obrázek "

- Příspěvky,které nebudou podle pravidel budou
Moderátorem upravené ,přesunuté do smeti nebo vymazané
- Žádný SPAM !

PROSÍM VŠECHNY UPLOADERY,ABY PŘI VLOŽENÍ PŘÍSPĚVKU POUŽÍVALI SPRÁVNOU IKONKU
SERVERU,NA KTERÉM JE PŘÍSPĚVEK ULOŽEN,USNADNÍTE NÁM HODNĚ PRÁCE.DĚKUJEME
<<

freesby89


Expert


Užívateľ

ID Užívateľa: 23506

Registrován: 12 pro 2017, 15:52



Příspěvky: 619
(Zobraziť: Všetko /Témy)

Poďakoval som: 0 krát

Poďakovali my: 1 krát



Peňazí na ruke: 8,000.00



Karma: 0

Příspěvek 24 dub 2018, 13:59

Pacific Rim: Uprising / Pacific Rim: Povstanie (2018)

Pacific.Rim.2.Uprising.2018.KORSUB.HDRip.x264-STUTTERSHIT.mp4 + cz titulky




Cover:

Obrázek

Info:

Jazyk: ENG
Titulky: CZ
Kvalita zvuku: MediaInfo
Kvalita videa: MediaInfo
Csfd:
  Kód:   Vybrat vše
https://www.csfd.cz/film/330881-pacific-rim-povstani/prehled/


Info:
  Kód:   Vybrat vše
General
Complete name: F:\Pacific.Rim.2\Pacific.Rim.2.Uprising.2018.KORSUB.HDRip.x264-STUTTERSHIT.mp4
Format: MPEG-4
Format profile: Base Media
Codec ID: isom
File size: 1.05 GiB
Duration: 1h 50mn
Overall bit rate: 1 361 Kbps
Movie name: Pacific.Rim.2.Uprising.2018.KORSUB.HDRip.x264-STUTTERSHIT
Writing application: Lavf58.0.101
Comment: Pacific.Rim.2.Uprising.2018.KORSUB.HDRip.x264-STUTTERSHIT

Video
ID: 1
Format: AVC
Format/Info: Advanced Video Codec
Format profile: High@L3.1
Format settings, CABAC: Yes
Format settings, ReFrames: 5 frames
Codec ID: avc1
Codec ID/Info: Advanced Video Coding
Duration: 1h 50mn
Bit rate: 1 100 Kbps
Width: 720 pixels
Height: 304 pixels
Display aspect ratio: 2.40:1
Original display aspect ratio: 2.40:1
Frame rate mode: Constant
Frame rate: 29.970 fps
Color space: YUV
Chroma subsampling: 4:2:0
Bit depth: 8 bits
Scan type: Progressive
Bits/(Pixel*Frame): 0.168
Stream size: 868 MiB (81%)
Title: Pacific.Rim.2.Uprising.2018.KORSUB.HDRip.x264-STUTTERSHIT
Writing library: x264 core 148 r2795M aaa9aa8
Encoding settings: cabac=1 / ref=5 / deblock=1:-1:-1 / analyse=0x3:0x113 / me=umh / subme=9 / psy=1 / psy_rd=1.00:0.15 / mixed_ref=1 / me_range=16 / chroma_me=1 / trellis=2 / 8x8dct=1 / cqm=0 / deadzone=21,11 / fast_pskip=1 / chroma_qp_offset=-3 / threads=24 / lookahead_threads=2 / sliced_threads=0 / nr=0 / decimate=1 / interlaced=0 / bluray_compat=0 / constrained_intra=0 / bframes=3 / b_pyramid=2 / b_adapt=2 / b_bias=0 / direct=3 / weightb=1 / open_gop=0 / weightp=2 / keyint=250 / keyint_min=25 / scenecut=40 / intra_refresh=0 / rc_lookahead=50 / rc=abr / mbtree=1 / bitrate=1100 / ratetol=1.0 / qcomp=0.60 / qpmin=0 / qpmax=69 / qpstep=4 / ip_ratio=1.40 / aq=1:1.00

Audio
ID: 2
Format: AAC
Format/Info: Advanced Audio Codec
Format profile: LC
Codec ID: 40
Duration: 1h 50mn
Bit rate mode: Constant
Bit rate: 256 Kbps
Channel(s): 2 channels
Channel positions: Front: L R
Sampling rate: 48.0 KHz
Compression mode: Lossy
Stream size: 203 MiB (19%)
Title: Pacific.Rim.2.Uprising.2018.KORSUB.HDRip.x264-STUTTERSHIT
Language                                 : English




Download:
  Kód:   Vybrat vše
http://fastshare.cz/9188125/pacific.rim.2.uprising.2018.korsub.hdrip.x264-stuttershit.mp4
http://fastshare.cz/9188126/pacific.rim.2.uprising.2018.korsub.hdrip.x264-stuttershit.srt
<<

hmmh


Amatér


Užívateľ

ID Užívateľa: 19797

Registrován: 06 črc 2013, 17:29



Příspěvky: 258
(Zobraziť: Všetko /Témy)

Poďakoval som: 0 krát

Poďakovali my: 0 krát



Peňazí na ruke: 2,618.75



Karma: 0

Příspěvek 09 čer 2018, 22:00

Pacific Rim: Uprising / Pacific Rim: Povstanie (2018)

Pacific Rim: Uprising / Pacific Rim: Povstání (2018) [Blu-ray RIP]

Akční / Sci-Fi / Dobrodružný
Poprvé jsme je dokázali zastavit. Jenže to, co mimozemští tvorové Kaiju napáchali na Zemi v prvním díle akčního sci-fi Pacific Rim byla jen předehra k tomu, co si pro lidstvo připravili teď. Hvězda Star Wars John Boyega a Scott Eastwood z Rychle a zběsile vedou tým, který je poslední nadějí na přežití planety. Členy tohoto týmu jsou piloti ovládající Jaegery, obří roboty, kteří jsou svou velikostí a vybavením schopní konkurovat stejně vybaveným Kaiju. Jake Pentecost (John Boyega) k nim dlouhou patřil, jenže pak se vykašlal na svůj talent i na odkaz svého otce, jenž v boji proti Kaiju obětoval vlastní život. Raději přežívá v ilegalitě a na živobytí si vydělává nejrůznějšími aktivitami za hranou zákona. Při jedné takové akci narazí na patnáctiletou Amaru, která dokázala ukrást a rozchodit původně k likvidaci určeného Jaegera...

INFO:
  Kód:   Vybrat vše
https://www.csfd.cz/film/330881-pacific-rim-povstani/prehled/


Obrázek
________________________________________________________________________________

1143 MB

Video: 768x320 - XviD/H263 - 23.976 fps - 1200 Kbps
Audio: ENG - MP3 - 160 Kbps - 2ch Dolby
Titulky: CZ Čas: 1:50:42

SD - XviD
  Kód:   Vybrat vše
http://fastshare.cz/9805479/pacific-rim-uprising-povstani-2018.sd.brrip.dolby.cz-titulky-xvd-.avi?ref=380373


1805 MB

Video: 1280x536 - XviD/H263 - 23.976 fps - 2000 Kbps
Audio: ENG - MP3 - 160 Kbps - 2ch Dolby
Titulky: CZ Čas: 1:50:42

HD - XviD
  Kód:   Vybrat vše
http://fastshare.cz/9805413/pacific-rim-uprising-povstani-2018.hd.brrip.dolby.cz-titulky-xvd-.avi?ref=380373


2647 MB

Video: 1920x800 - XviD/H263 - 23.976 fps - 3000 Kbps
Audio: ENG - MP3 - 160 Kbps - 2ch Dolby
Titulky: CZ Čas: 1:50:42

FullHD - XviD
  Kód:   Vybrat vše
http://fastshare.cz/9804988/pacific-rim-uprising-povstani-2018.fullhd.brrip.dolby.cz-titulky-xvd-.avi?ref=380373

________________________________________________________________________________

1385 MB

Video: 1280x536 - AVC/H264 - 23.976 fps - 1500 Kbps
Audio: ENG - AAC - 160 Kbps - 2ch Dolby
Titulky: CZ+CZ+ENG Čas: 1:50:42

HD - AVC
  Kód:   Vybrat vše
http://fastshare.cz/9805448/pacific-rim-uprising-povstani-2018.hd.brrip.dolby.eng-cz-titulky-.mkv?ref=380373


1800 MB

Video: 1920x800 - AVC/H264 - 23.976 fps - 2000 Kbps
Audio: ENG - AAC - 192 Kbps - 2ch Dolby
Titulky: CZ+CZ+ENG Čas: 1:50:42

FullHD - AVC
  Kód:   Vybrat vše
http://fastshare.cz/9805104/pacific-rim-uprising-povstani-2018.fullhd.brrip.dolby.eng-cz-titulky-.mkv?ref=380373


2682 MB

Video: 1920x800 - AVC/H264 - 23.976 fps - 3000 Kbps
Audio: ENG - AAC - 224 Kbps - 6ch
Titulky: CZ+CZ+ENG Čas: 1:50:42

FullHD - AVC
  Kód:   Vybrat vše
http://fastshare.cz/9804765/pacific-rim-uprising-povstani-2018.fullhd.brrip.6ch.eng-cz-titulky-.mkv?ref=380373

________________________________________________________________________________

1083 MB

Video: 1280x536 - HEVC/H265 - 23.976 fps - 1000 Kbps
Audio: ENG - HE-AAC - 160 Kbps - 2ch Dolby
Titulky: CZ+CZ+ENG Čas: 1:50:42

HD - HEVC
  Kód:   Vybrat vše
http://fastshare.cz/9805589/pacific-rim-uprising-povstani-2018.hd.hevc.brrip.dolby.eng-cz-titulky-.mkv?ref=380373


2236 MB

Video: 1920x800 - HEVC/H265 - 23.976 fps - 2000 Kbps
Audio: ENG - HE-AAC - 224 Kbps - 6ch
Titulky: CZ+CZ+ENG Čas: 1:50:42

FullHD - HEVC
  Kód:   Vybrat vše
http://fastshare.cz/9805257/pacific-rim-uprising-povstani-2018.fullhd.hevc.brrip.6ch.eng-cz-titulky-.mkv?ref=380373

________________________________________________________________________________




Zpět na Filmy originál DVDRIP- Premiéry / s titulkami



Kdo je online

Uživatelé procházející toto fórum: Žádní registrovaní uživatelé a 0 návštevníků

Powered by phpBB © 2000, 2002, 2005, 2007 phpBB Group.
Designed by ST Software.
Installed phpBB version: 3.0.12
Český překlad – phpBB.cz
Karma functions powered by Karma MOD © 2007, 2009 m157y
phpBB SEO
Protected by Anti-Spam ACP
TOPlist