Příspěvek 02 led 2018, 23:24

Susedia (2018) SK

Susedia.S04.720p.WEB-DL.AAC.H264-InitHD




Cover:

Obrázek

Info:

Jazyk: Svk
Titulky: Nie
Kvalita zvuku: v Media Info
Kvalita videa: v Media Info
Csfd:
  Kód:   Vybrat vše
https://www.csfd.cz/film/224711-susedia/prehled/

Info:
Complete name: Susedia.S04E01.720p.WEB-DL.AAC.H264-InitHD.mkv
Format: Matroska
Format version: Version 4 / Version 2
File size: 436 MiB
Duration: 32 min 42 s
Overall bit rate: 1 863 kb/s
Movie name: Susedia.S04E01.720p.WEB-DL.AAC.H264-InitHD
Encoded date: UTC 2018-01-01 23:05:19
Writing application: mkvmerge v17.0.0 ('Be Ur Friend';) 64-bit
Writing library: libebml v1.3.5 + libmatroska v1.4.8

Video
ID: 1
Format: AVC
Format/Info: Advanced Video Codec
Format profile: Baseline@L3.1
Format settings: 5 Ref Frames
Format settings, CABAC: No
Format settings, RefFrames: 5 frames
Codec ID: V_MPEG4/ISO/AVC
Duration: 32 min 42 s
Bit rate: 1 696 kb/s
Width: 1 280 pixels
Height: 720 pixels
Display aspect ratio: 16:9
Frame rate mode: Constant
Frame rate: 24.000 FPS
Color space: YUV
Chroma subsampling: 4:2:0
Bit depth: 8 bits
Scan type: Progressive
Bits/(Pixel*Frame): 0.077
Stream size: 396 MiB (91%)
Writing library: x264 core 142 r2479 dd79a61
Encoding settings: cabac=0 / ref=5 / deblock=1:-1:-1 / analyse=0x1:0x111 / me=umh / subme=8 / psy=1 / psy_rd=1.00:0.15 / mixed_ref=1 / me_range=16 / chroma_me=1 / trellis=1 / 8x8dct=0 / cqm=0 / deadzone=21,11 / fast_pskip=1 / chroma_qp_offset=-3 / threads=6 / lookahead_threads=1 / sliced_threads=0 / nr=0 / decimate=1 / interlaced=0 / bluray_compat=0 / constrained_intra=0 / bframes=0 / weightp=0 / keyint=250 / keyint_min=24 / scenecut=40 / intra_refresh=0 / rc_lookahead=50 / rc=abr / mbtree=1 / bitrate=1696 / ratetol=1.0 / qcomp=0.60 / qpmin=0 / qpmax=69 / qpstep=4 / ip_ratio=1.40 / aq=1:1.00
Default: Yes
Forced: No

Audio
ID: 2
Format: AAC
Format/Info: Advanced Audio Codec
Format profile: LC
Codec ID: A_AAC-2
Duration: 32 min 42 s
Bit rate: 165 kb/s
Channel(s): 2 channels
Channel positions: Front: L R
Sampling rate: 48.0 kHz
Frame rate: 46.875 FPS (1024 SPF)
Compression mode: Lossy
Stream size: 38.7 MiB (9%)
Default: Yes
Forced: No

Download:
  Kód:   Vybrat vše
http://www.fastshare.cz/8447133/susedia.s04e01.720p.web-dl.aac.h264-inithd.mkv
http://www.fastshare.cz/8495142/susedia.s04e02.720p.web-dl.aac.h264-inithd.mkv
Naposledy upravil Stanley dne 03 led 2018, 06:58, celkově upraveno 1
Důvod: Přidána ikonka serveru