Příspěvek 19 zář 2018, 15:51

Dukla 61 (2018)

Dukla 61 (2018)
Video/Zdroj: WebRip 1080p

Obrázek

CSFD / IMDB
  Kód:   Vybrat vše
https://www.csfd.cz/film/497828-dukla-61/prehled/
https://www.imdb.com/title/tt7191438/?ref_=nv_sr_1


INFO

Časť 1
Format : Matroska
Format version : Version 2
File size : 3.35 GiB
Duration : 1h 20mn
Overall bit rate : 5 944 Kbps

Video
Format : AVC
Format profile : Main@L4
Duration : 1h 20mn
Bit rate : 5 800 Kbps
Width : 1 920 pixels
Height : 1 080 pixels
Display aspect ratio : 16:9
Frame rate mode : Constant
Frame rate : 25.000 fps
Color space : YUV
Chroma subsampling : 4:2:0
Bit depth : 8 bits
Scan type : Progressive

Audio
Format : AAC
Duration : 1h 20mn
Channel(s) : 2 channels
Channel positions : Front: L R
Sampling rate : 48.0 KHz
Frame rate : 46.875 fps (1024 spf)
Compression mode : Lossy
Default : Yes
Forced : No


Časť 2
Format : Matroska
Format version : Version 2
File size : 2.64 GiB
Duration : 1h 13mn
Overall bit rate : 5 177 Kbps

Video
Format : AVC
Format profile : High@L4
Duration : 1h 13mn
Bit rate : 4 114 Kbps
Width : 1 920 pixels
Height : 1 080 pixels
Display aspect ratio : 16:9
Frame rate mode : Constant
Frame rate : 25.000 fps
Color space : YUV
Chroma subsampling : 4:2:0
Bit depth : 8 bits
Scan type : MBAFF
Scan type, store method : Interleaved fields
Scan order : Top Field First
Bits/(Pixel*Frame) : 0.079
Stream size : 2.10 GiB (79%)

Audio #1
Format : AC-3
Duration : 1h 13mn
Bit rate mode : Constant
Bit rate : 448 Kbps
Channel(s) : 2 channels
Channel positions : Front: L R
Sampling rate : 48.0 KHz
Frame rate : 31.250 fps (1536 spf)
Compression mode : Lossy
Stream size : 234 MiB (9%)
Language : Czech
Default : Yes
Forced : No

Audio #2
Format : MPEG Audio
Codec ID/Hint : MP2
Duration : 1h 13mn
Bit rate mode : Constant
Bit rate : 256 Kbps
Channel(s) : 2 channels
Sampling rate : 48.0 KHz
Compression mode : Lossy
Stream size : 134 MiB (5%)
Language : Czech
Default : No
Forced : No

Audio #3
Format : MPEG Audio
Codec ID/Hint : MP2
Duration : 1h 13mn
Bit rate mode : Constant
Bit rate : 192 Kbps
Channel(s) : 2 channels
Sampling rate : 48.0 KHz
Compression mode : Lossy
Stream size : 100 MiB (4%)
Language : Czech
Default : No
Forced : No

Audio #4
Format : MPEG Audio
Codec ID/Hint : MP2
Duration : 1h 13mn
Bit rate mode : Constant
Bit rate : 64.0 Kbps
Channel(s) : 1 channel
Sampling rate : 48.0 KHz
Compression mode : Lossy
Stream size : 33.4 MiB (1%)
Language : Czech Audio Commentary
Default : No
Forced : No


Fastshare
  Kód:   Vybrat vše
Časť 1:
http://fastshare.cz/10458902/dukla-61-01-2018-1080p-hdtvrip.mkv
Časť 2:
http://fastshare.cz/10458911/dukla-61-02-2018-1080p-hdtvrip.mkv