Příspěvek 23 zář 2018, 19:56

Rychle a zběsile 2 / 2 Fast 2 Furious (2003) Sample

Rychle.a.zběsile.2.2003.Sample

Obrázek
Obrázek
Obrázek

info

  Kód:   Vybrat vše
https://www.csfd.cz/film/91033-rychle-a-zbesile-2/prehled/


Volné pokračování úspěšného filmu, v němž hlavní roli hrála supersilná auta a nelegální uliční závody ve speciálně upravených vozech, nás tentokrát zavede do Miami. Někdejší policista Brian O'Connor při vyšetřování svého posledního případu selhal. On sám se sice cítí jako oběť, ale zároveň si je vědom, že za svůj prohřešek musí platit. Proto opustil Los Angeles a nový případ chápe jako svoji poslední šanci. Hlavním podezřelým je tentokrát bohatý obchodník, který s největší pravděpodobností, pod rouškou vývozních a dovozních aktivit, pere špinavé peníze pro jakýsi mezinárodní kartel. Víc než rok už je sledován celníky i policií, ale jediným výsledkem je poznání, že Carter Verone má živé styky s organizátory adrenalinových automobilových závodů. Vše je tedy na Brianovi, který už nemá co ztratit.

Úspěch filmu Rychle a zběsile byl natolik přesvědčivý, že krátce po premiéře už se začalo jednat o dalším pokračování. Rychlá auta, to je svět sám o sobě, a hazardní nepovolené závody magnetem pro diváky. Režisér John Singleton, který za kamerou tentokrát vystřídal Roba Cohena, v podstatě kráčí ve stopách svého předchůdce, ale jak zdůraznil v řadě rozhovorů, snažil se o maximální autenticitu prostředí a výrazné prokreslení charakterů lidí, kteří podlehli nebezpečnému kouzlu rychlých kol. Patří k nim i on sám, jak se přiznal. Připomeňme, že jeho jménem je podepsán akční kriminální příběh černošského detektiva Drsnej Shaft.(oficiální text distributora)


kvalita

General
Unique ID : 181941342526795066468828167958144742645 (0x88E0A0C29AE2912D8551DFEB52A3F4F5)
Complete name : D:\up1\Rychle.a.zběsile.2.2003.Sample.mkv
Format : Matroska
Format version : Version 2
File size : 50.3 MiB
Duration : 45s 74ms
Overall bit rate : 9 358 Kbps
Encoded date : UTC 2013-05-03 17:59:27
Writing application : mkvmerge v5.8.0 ('No Sleep / Pillow') built on Sep 2 2012 15:37:04
Writing library : libebml v1.2.3 + libmatroska v1.3.0

Video
ID : 1
Format : AVC
Format/Info : Advanced Video Codec
Format profile : Baseline@L4
Format settings, CABAC : No
Format settings, ReFrames : 1 frame
Format settings, GOP : M=1, N=12
Muxing mode : Header stripping
Codec ID : V_MPEG4/ISO/AVC
Duration : 45s 87ms
Bit rate : 8 724 Kbps
Width : 1 920 pixels
Height : 1 080 pixels
Display aspect ratio : 16:9
Frame rate mode : Constant
Frame rate : 23.976 fps
Color space : YUV
Chroma subsampling : 4:2:0
Bit depth : 8 bits
Scan type : Progressive
Bits/(Pixel*Frame) : 0.175
Stream size : 46.9 MiB (93%)
Default : Yes
Forced : No

Audio
ID : 2
Format : AC-3
Format/Info : Audio Coding 3
Mode extension : CM (complete main)
Format settings, Endianness : Big
Muxing mode : Header stripping
Codec ID : A_AC3
Duration : 45s 74ms
Bit rate mode : Constant
Bit rate : 448 Kbps
Channel(s) : 6 channels
Channel positions : Front: L C R, Side: L R, LFE
Sampling rate : 48.0 KHz
Compression mode : Lossy
Delay relative to video : 18ms
Stream size : 2.41 MiB (5%)
Language : Czech
Default : Yes
Forced : No


download

  Kód:   Vybrat vše
https://uloz.to/live/!fsNL103uLWw9/rychle-a-zbesile-2-2003-sample-mkv