Příspěvek 10 lis 2018, 20:32

Arrow / Arrow (2012) / S07 / EN-CZ tit

Obrázek

  Kód:   Vybrat vše
https://www.imdb.com/title/tt2193021/?ref_=nv_sr_1

https://www.csfd.cz/film/318290-arrow/prehled


Format : Matroska
Format version : Version 4
File size : 1.02 GiB
Duration : 41 min 39 s
Overall bit rate : 3 505 kb/s

Video
ID : 1
Format : AVC
Format/Info : Advanced Video Codec
Format profile : High@L4.1
Format settings : CABAC / 5 Ref Frames
Format settings, CABAC : Yes
Format settings, ReFrames : 5 frames
Codec ID : V_MPEG4/ISO/AVC
Duration : 41 min 39 s
Bit rate : 3 119 kb/s
Width : 1 280 pixels
Height : 720 pixels
Display aspect ratio : 16:9
Frame rate mode : Constant
Frame rate : 23.976 (24000/1001) FPS

Audio
ID : 2
Format : AC-3
Format/Info : Audio Coding 3
Commercial name : Dolby Digital
Codec ID : A_AC3
Duration : 41 min 59 s
Bit rate mode : Constant
Bit rate : 384 kb/s
Channel(s) : 6 channels
Channel layout : L R C LFE Ls Rs
Sampling rate : 48.0 kHz
Frame rate : 31.250 FPS (1536 SPF)
Bit depth : 16 bits
Compression mode : Lossy
Stream size : 115 MiB (11%)
Service kind : Complete Main
Default : Yes
Forced : No

Text
ID : 3
Format : UTF-8
Codec ID : S_TEXT/UTF8
Codec ID/Info : UTF-8 Plain Text
Duration : 41 min 52 s
Bit rate : 70 b/s
Count of elements : 618
Stream size : 21.7 KiB (0%)
Language/Forced : Czech

S07E01: Inmate

  Kód:   Vybrat vše
https://www.netshare.cz/33e6cbbce31ee132/Arrow.S07E01.720p.HDTV.x264-SVA[ettv]_CZ_Titulky.mkv


S07E02 :The Longbow Hunters

  Kód:   Vybrat vše
https://www.netshare.cz/150696aafc8d0ce8/Arrow.S07E02.720p.HDTV.x264-SVA[ettv]_CZ_Titulky.mkv


S07E03 :Crossing Lines

  Kód:   Vybrat vše
https://www.netshare.cz/255c8ae8dbc741d5/Arrow.S07E03.720p.HDTV.x264-SVA[ettv]_CZ_Titulky.mkv


S07E04 :Level Two

  Kód:   Vybrat vše
http://www.netshare.cz/4b64d0a06aeb768a/Arrow.S07E04.720p.HDTV.x264-SVA[ettv].mkv


S07E05 :The Demon

  Kód:   Vybrat vše
http://www.netshare.cz/c7464d530cbd7eeb/Arrow.S07E05.720p.HDTV.x264-SVA[ettv]_CZ_Titulky.mkv


S07E06 :Due Process

  Kód:   Vybrat vše
http://www.netshare.cz/5055fa8284ca67b2/Arrow.S07E06.720p.HDTV.x264-SVA[ettv]_CZ_Titulky.mkv


S07E07 :The Slabside Redemption

  Kód:   Vybrat vše
http://fastshare.cz/10841628/arrow.s07e07.720p.hdtv.x264-sva-ettv-cz-titulky.mkv


S07E08 : Unmasked

  Kód:   Vybrat vše
http://fastshare.cz/10905769/arrow.s07e08.720p.hdtv.x264-sva-ettv-cz-titulky.mkv


S07E09 : Elseworlds, Part 2

  Kód:   Vybrat vše
http://fastshare.cz/10927987/arrow.s07e09.720p.hdtv.x264-sva-ettv-cz-titulky.mkv


S07E10 :My Name Is Emiko Queen

  Kód:   Vybrat vše
http://fastshare.cz/11451507/arrow.s07e10.720p.hdtv.x264-cz-titulky.mkv


S07E11 :Past Sins

  Kód:   Vybrat vše
http://fastshare.cz/11451734/arrow.s07e11.720p.hdtv.x264-cz-titulky.mkv


S07E12 :Emerald Archer

  Kód:   Vybrat vše
http://fastshare.cz/11452074/arrow.s07e12.720p.hdtv.x264-cz-titulky.mkv


S07E13 :Star City Slayer

  Kód:   Vybrat vše
http://fastshare.cz/11452154/arrow.s07e13.720p.hdtv.x264-cz-titulky.mkv


S07E14 :Brothers & Sisters

  Kód:   Vybrat vše
http://fastshare.cz/11452298/arrow.s07e14.720p.hdtv.x264-cz-titulky.mkv


S07E15 :Training Day

  Kód:   Vybrat vše
http://fastshare.cz/11452368/arrow.s07e15.720p.hdtv.x264-cz-titulky.mkv


S07E16 :Star City 2040

  Kód:   Vybrat vše
http://fastshare.cz/11452489/arrow.s07e16.720p.hdtv.x264-cz-titulky.mkv


S07E17 :Inheritance

  Kód:   Vybrat vše
http://fastshare.cz/11475833/arrow.s07e17.720p.hdtv.x264-cz-titulky.mkv
Naposledy upravil draha dne 28 bře 2019, 20:14, celkově upraveno 2
Důvod: Oprava názvu tématu