Příspěvek 01 črc 2019, 21:57

Zlaté časy ve Spessartu / Herrliche Zeiten im Spes... (1967)

Zlaté časy ve Spessartu / Herrliche Zeiten im Spessart (1967)(CZ/DE)


Zlaté časy ve Spessartu

Západní Německo Herrliche Zeiten im Spessart
Slovensko Zlaté časy v Spessarte

Komedie / Sci-Fi

Západní Německo, 1967, 105 min
Režie: Kurt Hoffmann
Kamera: Richard Angst
Hudba: Franz Grothe
Hrají: Liselotte Pulver, Harald Leipnitz, Vivi Bach, Hannelore Elsner, Paul Esser, Erich Fiedler, Monika Zinnenberg, Gila von Weitershausen, Klaus Schwarzkopf, Kathrin Ackermann, Peter Capell, Hubert von Meyerinck, Rudolf Rhomberg, Hans Richter, Ewald Wenck, Tatjana Sais, Willy Millowitsch
Zvuk: Erwin Schänzle
Scénografie: Werner Schlichting
Masky: Raimund Stangl
Kostýmy: Elisabeth Urbancic

Obsah:

Poslední díl spessartské trilogie. Strašidla se vrací z vesmíru a přistávají u zámku, kde naleznou nešťastnou Anneliese (Liselette Pulver). Její snoubenec právě upřednostnil manévry před svazkem s ní. Strašidla nabídnou Anneliese svou raketu, aby ho mohla dohonit. Vinou nehody však putují časem, a ve všech dobách které navštíví, muži váhají mezi válkou a láskou k ženě.


Menu: Ano
Bonusy: Trailer, fotogalerie, nabídka, životopisy herců (německy)
Obraz: 4:3 letterbox (1,66:1)
Zvuk: AC3 2.0 CZ, DE (volba jazyka není v menu)
Titulky: DE
Kvalita DVD: bez komprese (4,71 Mb/s)
Velikost: 4,36 GB
Rok vydání DVD: 2007 - Kinowelt
Žánr: Komedie / Sci-Fi
Délka: 1:40:30 hod.

Obrázek

Obrázek
  Kód:   Vybrat vše
https://www.csfd.cz/film/41453-zlate-casy-ve-spessartu/prehled/#

Obrázek
  Kód:   Vybrat vše
https://www.imdb.com/title/tt0061762/?ref_=fn_al_tt_1

Obrázek


  Kód:   Vybrat vše
Complete name: E:\...\ZLATÉ ČASY VE SPESSARTU\VIDEO_TS\VTS_08_1.VOB
Format: MPEG-PS
File size: 1 024 MiB
Duration: 28mn 43s
Overall bit rate: 4 984 Kbps

Video
ID: 224 (0xE0)
Format: MPEG Video
Format version: Version 2
Format profile: Main@Main
Format settings, Matrix: Default
Duration: 28mn 43s
Bit rate mode: Variable
Bit rate: 4 402 Kbps
Nominal bit rate: 9 300 Kbps
Width: 720 pixels
Height: 576 pixels
Display aspect ratio: 4/3
Frame rate: 25.000 fps
Standard: PAL
Colorimetry: 4:2:0
Scan type: Interlaced
Scan order: Top Field First
Bits/(Pixel*Frame): 0.425
Stream size: 904 MiB (88%)

Audio #1
ID: 128 (0x80)
Format: AC-3
Format/Info: Audio Coding 3
Duration: 28mn 43s
Bit rate mode: Constant
Bit rate: 192 Kbps
Channel(s): 2 channels
Channel positions: L R
Sampling rate: 48.0 KHz
Stream size: 39.4 MiB (4%)

Audio #2
ID: 129 (0x81)
Format: AC-3
Format/Info: Audio Coding 3
Duration: 28mn 43s
Bit rate mode: Constant
Bit rate: 192 Kbps
Channel(s): 2 channels
Channel positions: L R
Sampling rate: 48.0 KHz
Stream size: 39.4 MiB (4%)

Text
ID: 32 (0x20)
Format: RLE
Format/Info: Run-length encoding

Menu
Format: DVD-Video


Obrázek
  Kód:   Vybrat vše
http://www.fastshare.cz/11906243/zlate-casy-ve-spessartu.rar
Naposledy upravil Stanley dne 02 črc 2019, 06:25, celkově upraveno 1
Důvod: Oprava názvu tématu