Příspěvek 11 led 2020, 21:06

Da Wu Dang zhi tian di mi ma / Da wu dang tian di... (2012)

Wu Dang / Da wu dang tian di mi ma (2012)

Video/Zdroj: BDRip 720p
Audio: CHI MP3 2ch
Titulky: CZ


Obrázek

CSFD / IMDB
  Kód:   Vybrat vše
https://www.csfd.cz/film/309027-da-wu-dang-tian-di-mi-ma/prehled/
https://www.imdb.com/title/tt2251662/?ref_=nv_sr_srsg_1


INFO
Format : AVI
File size : 2.11 GiB
Duration : 1 h 40 min
Overall bit rate : 3 005 kb/s

Video
Format : AVC
Format profile : Main@L3.1
Codec ID : H264
Duration : 1 h 40 min
Bit rate : 2 940 kb/s
Width : 1 280 pixels
Height : 720 pixels
Display aspect ratio : 16:9
Frame rate mode : Variable
Frame rate : 23.976 (23976/1000) FPS
Color space : YUV
Chroma subsampling : 4:2:0
Bit depth : 8 bits
Scan type : Progressive
Bits/(Pixel*Frame) : 0.133
Stream size : 2.03 GiB (96%)

Audio
Format : MPEG Audio
Codec ID/Hint : MP3
Duration : 1 h 40 min
Bit rate mode : Constant
Bit rate : 96.0 kb/s
Channel(s) : 2 channels
Sampling rate : 44.1 kHz
Compression mode : Lossy
Stream size : 69.0 MiB (3%)
Alignment : Aligned on interleaves
Interleave, duration : 26 ms (0.63 video frame)


FASTSHARE

  Kód:   Vybrat vše
http://fastshare.cz/12866126/wu-dang-2012-720p-ch-cz-titulky.avi
Naposledy upravil Stanley dne 11 led 2020, 22:00, celkově upraveno 1
Důvod: Oprava názvu tématu