Příspěvek 20 kvě 2020, 14:01

Pyšná princezna (1952)

Pyšná princezna (1952)

Video/Zdroj: DVDRip
Audio: CZ AAC 2ch


Obrázek

CSFD / IMDB
  Kód:   Vybrat vše
https://www.csfd.cz/film/10094-pysna-princezna/prehled/
https://www.imdb.com/title/tt0191383/?ref_=nv_sr_1


INFO
Spoiler:
Format : MPEG-4
File size : 1.46 GiB
Duration : 1 h 27 min
Overall bit rate mode : Variable
Overall bit rate : 2 395 kb/s

Video
Format : MPEG-4 Visual
Format profile : Advanced Simple@L5
Format settings, Matrix : Default (H.263)
Duration : 1 h 27 min
Bit rate : 2 261 kb/s
Width : 720 pixels
Height : 544 pixels
Display aspect ratio : 4:3
Frame rate mode : Variable
Frame rate : 25.000 FPS
Minimum frame rate : 8.333 FPS
Maximum frame rate : 25.000 FPS
Color space : YUV
Chroma subsampling : 4:2:0
Bit depth : 8 bits
Scan type : Progressive
Compression mode : Lossy
Bits/(Pixel*Frame) : 0.231
Stream size : 1.38 GiB (94%)

Audio
Format : AAC
Duration : 1 h 27 min
Bit rate mode : Variable
Bit rate : 128 kb/s
Channel(s) : 2 channels
Channel positions : Front: L R
Sampling rate : 48.0 kHz
Frame rate : 46.875 FPS (1024 SPF)
Compression mode : Lossy
Stream size : 79.8 MiB (5%)


FASTSHARE

  Kód:   Vybrat vše
http://fastshare.cz/13267267/pysna-princezna-1952-cz.mp4