Příspěvek 16 úno 2021, 14:52

Apokalypsa - Druhá svetová vojna / Apocalypse - La... (2009)

Apokalypsa - Druhá svetová vojna / Apocalypse - La 2ème Guerre Mondiale (2009)

Video/Zdroj: DTVRip
Jazyk: SK


Obrázek

CSFD / IMDB
  Kód:   Vybrat vše
https://www.csfd.cz/film/275830-apokalypsa-2-svetova-valka/prehled/
https://www.imdb.com/title/tt1508238/?ref_=nv_sr_1?ref_=nv_sr_1


INFO
Kvalita videa je pre všetky diely takmer identická.
Spoiler:
Format : AVI
File size : 549 MiB
Duration : 52mn 1s
Overall bit rate : 1 475 Kbps

Video
Format : MPEG-4 Visual
Format profile : Advanced Simple@L5
Format settings, Matrix : Default (H.263)
Codec ID/Hint : XviD
Duration : 52mn 1s
Bit rate : 1 340 Kbps
Width : 640 pixels
Height : 352 pixels
Display aspect ratio : 16:9
Frame rate : 25.000 fps
Color space : YUV
Chroma subsampling : 4:2:0
Bit depth : 8 bits
Scan type : Progressive
Compression mode : Lossy
Bits/(Pixel*Frame) : 0.238
Stream size : 499 MiB (91%)

Audio
Format : MPEG Audio
Codec ID/Hint : MP3
Duration : 52mn 1s
Bit rate mode : Variable
Bit rate : 128 Kbps
Channel(s) : 2 channels
Sampling rate : 48.0 KHz
Compression mode : Lossy
Stream size : 45.6 MiB (8%)
Alignment : Aligned on interleaves
Interleave, duration : 24 ms (0.60 video frame)
Interleave, preload duration : 535 ms
Writing library : LAME3.98


FASTSHARE

Diel 01 - Agresia
  Kód:   Vybrat vše
https://fastshare.cz/15892124/apokalypsa-druha-svetova-vojna-e01-agresia-sk-dtvrip.avi


Diel 02 - Útlak
  Kód:   Vybrat vše
https://fastshare.cz/15892111/apokalypsa-druha-svetova-vojna-e02-utlak-sk-dtvrip.avi


Diel 03 - Šok
  Kód:   Vybrat vše
https://fastshare.cz/15892100/apokalypsa-druha-svetova-vojna-e03-sok-sk-dtvrip.avi


Diel 04 - Obkľúčenie
  Kód:   Vybrat vše
https://fastshare.cz/15892095/apokalypsa-druha-svetova-vojna-e04-obklucenie-sk-dtvrip.avi


Diel 05 - Zovretie
  Kód:   Vybrat vše
https://fastshare.cz/15892086/apokalypsa-druha-svetova-vojna-e05-zovretie-sk-dtvrip.avi


Diel 06 - Peklo
  Kód:   Vybrat vše
https://fastshare.cz/15892084/apokalypsa-druha-svetova-vojna-e06-peklo-sk-dtvrip.avi
Naposledy upravil Stanley dne 17 úno 2021, 07:16, celkově upraveno 1
Důvod: Oprava názvu