Příspěvek 18 úno 2021, 18:20

Vlk z Wall Street / Wolf of Wall Street, The (2013)

Vlk z Wall Street / Wolf of Wall Street, The (2013)

Video/Zdroj: BRRip 480p
Audio: CZ AC-3 5.1ch, EN AC-3 5.1ch
Titulky: CZ


Obrázek

CSFD / IMDB
  Kód:   Vybrat vše
https://www.csfd.cz/film/287147-vlk-z-wall-street/prehled/
https://www.imdb.com/title/tt0993846/?ref_=nv_sr_1?ref_=nv_sr_1


INFO
Spoiler:
Format : Matroska
Format version : Version 2
File size : 2.43 GiB
Duration : 2 h 59 min
Overall bit rate : 1 938 kb/s

Video
Format : AVC
Format profile : High@L4.1
Format settings : CABAC / 2 Ref Frames
Format settings, CABAC : Yes
Format settings, Reference : 2 frames
Codec ID : V_MPEG4/ISO/AVC
Duration : 2 h 59 min
Bit rate : 1 003 kb/s
Width : 720 pixels
Height : 300 pixels
Display aspect ratio : 2.40:1
Frame rate mode : Constant
Frame rate : 23.976 (24000/1001) FPS
Color space : YUV
Chroma subsampling : 4:2:0
Bit depth : 8 bits
Scan type : Progressive
Bits/(Pixel*Frame) : 0.194
Stream size : 1.26 GiB (52%)

Audio #1
Format : AC-3
Commercial name : Dolby Digital
Duration : 2 h 59 min
Bit rate mode : Constant
Bit rate : 448 kb/s
Channel(s) : 6 channels
Channel layout : L R C LFE Ls Rs
Sampling rate : 48.0 kHz
Frame rate : 31.250 FPS (1536 SPF)
Compression mode : Lossy
Stream size : 575 MiB (23%)
Language : Czech
Default : Yes
Forced : No

Audio #2
Format : AC-3
Commercial name : Dolby Digital
Duration : 2 h 59 min
Bit rate mode : Constant
Bit rate : 448 kb/s
Channel(s) : 6 channels
Channel layout : L R C LFE Ls Rs
Sampling rate : 48.0 kHz
Frame rate : 31.250 FPS (1536 SPF)
Compression mode : Lossy
Stream size : 575 MiB (23%)
Language : English
Default : No
Forced : No

Text
Format : VobSub
Language : Czech
Default : Yes
Forced : No


FASTSHARE

  Kód:   Vybrat vše
https://fastshare.cz/15967807/vlk-z-wall-street-2013-cz-5.1-en.mkv


  Kód:   Vybrat vše
https://fastshare.cz/15967983/vzws.part1.rar
https://fastshare.cz/15967900/vzws.part2.rar


Balené bez kompresie. Bez hesla. Pridaný záznam pre opravu dát 5%.