Příspěvek 27 úno 2021, 16:36

Černobyl / Chernobyl (2019) / S01 / WEB / CZE,ENG

Chernobyl (2019)

Video/Zdroj: BluRay 1080p
Audio: CZ AC-3 2ch, EN E-AC-3 5.1ch
Subtitles: CZ, CZ forced, EN


Obrázek

CSFD / IMDB
  Kód:   Vybrat vše
https://www.csfd.cz/film/683975-cernobyl/prehled/
https://www.imdb.com/title/tt7366338/?ref_=nv_sr_1?ref_=nv_sr_2


INFO
Spoiler:
Format : Matroska
Format version : Version 4 / Version 2
File size : 4.19 GiB
Duration : 1 h 0 min
Overall bit rate : 9 954 kb/s

Video
Format : AVC
Format profile : High@L4
Duration : 1 h 0 min
Bit rate mode : Constant
Bit rate : 9 088 kb/s
Nominal bit rate : 10 000 kb/s
Width : 1 920 pixels
Height : 1 080 pixels
Display aspect ratio : 16:9
Frame rate mode : Constant
Frame rate : 23.976 (24000/1001) FPS
Color space : YUV
Chroma subsampling : 4:2:0
Bit depth : 8 bits
Scan type : Progressive
Bits/(Pixel*Frame) : 0.183
Stream size : 3.82 GiB (91%)

Audio #1
Format : AC-3
Duration : 1 h 0 min
Bit rate mode : Constant
Bit rate : 224 kb/s
Channel(s) : 2 channels
Channel positions : Front: L R
Sampling rate : 48.0 kHz
Frame rate : 31.250 FPS (1536 SPF)
Bit depth : 16 bits
Compression mode : Lossy
Stream size : 96.4 MiB (2%)
Language : Czech
Default : Yes
Forced : Yes

Audio #2
Format : E-AC-3
Format/Info : Enhanced Audio Coding 3
Duration : 1 h 0 min
Bit rate mode : Constant
Bit rate : 640 kb/s
Channel(s) : 6 channels
Channel positions : Front: L C R, Side: L R, LFE
Sampling rate : 48.0 kHz
Frame rate : 187.500 FPS (256 SPF)
Compression mode : Lossy
Delay relative to video : 24 ms
Stream size : 276 MiB (6%)
Language : English
Default : No
Forced : No

Text #1
Format : UTF-8
Language : Czech
Default : Yes
Forced : Yes

Text #2
Format : UTF-8
Language : Czech
Default : No
Forced : No

Text #3
Format : UTF-8
Language : English
Default : No
Forced : No


FASTSHARE

  Kód:   Vybrat vše
https://fastshare.cz/16064730/chernobyl-2019-e1-1080p-cz-en.mkv
https://fastshare.cz/16064701/chernobyl-2019-e2-1080p-cz-en.mkv
https://fastshare.cz/16064676/chernobyl-2019-e3-1080p-cz-en.mkv
https://fastshare.cz/16064645/chernobyl-2019-e4-1080p-cz-en.mkv
https://fastshare.cz/16064622/chernobyl-2019-e5-1080p-cz-en.mkv


Balené bez kompresie. Bez hesla. Pridaný záznam pre opravu dát 5%.