Příspěvek 07 dub 2021, 20:41

Casino Royale / Casino Royale (2006)

Casino Royale (2006)

Video/Zdroj: BluRay 1080p
Audio: CZ AC-3 5.1ch, EN DTS-HD MA 5.1ch, EN DTS 5.1ch
Titulky: CZ, CZ forced, EN


Obrázek

CSFD / IMDB
  Kód:   Vybrat vše
https://www.csfd.cz/film/208033-casino-royale/prehled/
https://www.imdb.com/title/tt0381061/?ref_=nv_sr_srsg_0


INFO
Spoiler:
Format : Matroska
Format version : Version 4 / Version 2
File size : 21.0 GiB
Duration : 2 h 24 min
Overall bit rate : 20.8 Mb/s

Video
Format : AVC
Format profile : High@L4.1
Duration : 2 h 24 min
Width : 1 920 pixels
Height : 798 pixels
Display aspect ratio : 2.40:1
Frame rate mode : Constant
Frame rate : 23.976 (24000/1001) FPS
Color space : YUV
Chroma subsampling : 4:2:0
Bit depth : 8 bits
Scan type : Progressive

Audio #1
Format : DTS
Format profile : MA / Core
Duration : 2 h 24 min
Bit rate mode : Variable / Constant
Bit rate : Unknown / 768 kb/s
Channel(s) : 6 channels
Channel positions : Front: L C R, Side: L R, LFE
Sampling rate : 48.0 kHz
Frame rate : 93.750 FPS (512 SPF)
Bit depth : 24 bits
Compression mode : Lossless / Lossy
Language : English
Default : Yes
Forced : No

Audio #2
Format : DTS
Duration : 2 h 24 min
Bit rate mode : Constant
Bit rate : 768 kb/s
Channel(s) : 6 channels
Channel positions : Front: L C R, Side: L R, LFE
Sampling rate : 48.0 kHz
Frame rate : 93.750 FPS (512 SPF)
Bit depth : 24 bits
Compression mode : Lossy
Stream size : 794 MiB (4%)
Language : English
Default : No
Forced : No

Audio #3
Format : AC-3
Duration : 2 h 24 min
Bit rate mode : Constant
Bit rate : 448 kb/s
Channel(s) : 6 channels
Channel positions : Front: L C R, Side: L R, LFE
Sampling rate : 48.0 kHz
Frame rate : 31.250 FPS (1536 SPF)
Bit depth : 16 bits
Compression mode : Lossy
Stream size : 463 MiB (2%)
Language : Czech
Default : No
Forced : No

Text #1
Format : PGS
Language : Czech
Default : Yes
Forced : No

Text #2
Format : PGS
Language : Czech
Default : No
Forced : No

Text #3
Format : PGS
Language : English
Default : No
Forced : No


FASTSHARE

  Kód:   Vybrat vše
https://fastshare.cz/16526318/bond-21-casino-royale-2006-cz-en-1080p-bdrip.mkv


  Kód:   Vybrat vše
https://fastshare.cz/16526484/b21cr.part01.rar
https://fastshare.cz/16526480/b21cr.part02.rar
https://fastshare.cz/16526469/b21cr.part03.rar
https://fastshare.cz/16526457/b21cr.part04.rar
https://fastshare.cz/16526449/b21cr.part05.rar
https://fastshare.cz/16526442/b21cr.part06.rar
https://fastshare.cz/16526437/b21cr.part07.rar
https://fastshare.cz/16526428/b21cr.part08.rar
https://fastshare.cz/16526423/b21cr.part09.rar
https://fastshare.cz/16526416/b21cr.part10.rar
https://fastshare.cz/16526404/b21cr.part11.rar
https://fastshare.cz/16526388/b21cr.part12.rar


Balené bez kompresie. Bez hesla. Pridaný záznam pre opravu dát 5%.
Naposledy upravil Stanley dne 08 dub 2021, 21:09, celkově upraveno 1
Důvod: Oprava názvu