Loading...
Oznam

Forum je na prodej,v případě zájmu pište do Kontaktu



warpark-Forum


Quantum of Solace / James Bond: Quantum of Solace (2008)

Moderátor: drobec

<<

ponte753


Expert


Užívateľ

ID Užívateľa: 23695

Registrován: 12 říj 2018, 23:04



Příspěvky: 666
(Zobraziť: Všetko /Témy)

Poďakoval som: 0 krát

Poďakovali my: 2 krát



Peňazí na ruke: 8,658.50



Karma: 0

Příspěvek 20 říj 2019, 16:10

Quantum of Solace / James Bond: Quantum of Solace (2008)

Obrázek

Quantum of Solace / James Bond: Quantum of Solace (2008)

Akční / Dobrodružný / Krimi / Thriller

Velká Británie / USA, 2008, 106 min


Režie: Marc Forster
Scénář: Neal Purvis, Robert Wade, Paul Haggis
Kamera: Roberto Schaefer
Hudba: David Arnold
Hrají: Daniel Craig, Olga Kurylenko, Mathieu Amalric, Judi Dench, Giancarlo Giannini, Gemma Arterton, Jeffrey Wright, David Harbour, Jesper Christensen, Anatole Taubman, Rory Kinnear, Tim Pigott-Smith, Joaquín Cosio, Fernando Guillén Cuervo, Jesús Ochoa, Simon Kassianides, Stana Katic, Neil Jackson, Oona Chaplin, Rachel McDowall, Mark Wa… (více)
Producenti: Barbara Broccoli, Michael G. Wilson
Střih: Matt Chesse, Richard Pearson
Scénografie: Dennis Gassner
Kostýmy: Louise Frogley

  Kód:   Vybrat vše
https://www.imdb.com/title/tt0830515/

https://www.csfd.cz/film/226775-quantum-of-solace/


Jazyk: Czech DD5.1 (Ac3) , English DTS-HD MA 5.1 , DD5.1 (Ac3)

Titulky (PGS): Czech , Eng , Ger , Fre

2160p UHD Blu-ray HEVC

Spoiler:
Formát : Matroska
Velikost souboru : 50,1 GiB
Duration/String : 1 h 46 min
Celkový BitRate : 67,6 Mb/s

Video
Formát : HEVC
Format_Profile : Main 10@L5.1@High
HDR_Format/String : SMPTE ST 2086, HDR10 compatible
CodecID : V_MPEGH/ISO/HEVC
Duration/String : 1 h 46 min
Bit rate : 62,6 Mb/s
Šířka : 3 840pixely
Výška : 2 160pixely
Poměr stran : 16:9
Frame rate : 23,976 (24000/1001) FPS
BitDepth/String : 10 bits

Audio #1
Formát/ : Digital Theater Systems
Format_Commercial_IfAny : DTS-HD Master Audio
CodecID : A_DTS
Duration/String : 1 h 46 min
Bit rate : 4 094 kb/s
Kanál(y) : 6 kanály
Sampling rate : 48,0 kHz
Frame rate : 93,750 FPS (512 SPF)
BitDepth/String : 24 bits
StreamSize/String : 3,04 GiB (6%)
Titul : Eng DTS-HD Master 5.1
Jazyk : English
Default : Ano

Audio #2
Formát : AC-3
Format_Commercial_IfAny : Dolby Digital
CodecID : A_AC3
Duration/String : 1 h 46 min
Bit rate : 448 kb/s
Kanál(y) : 6 kanály
Sampling rate : 48,0 kHz
Frame rate : 31,250 FPS (1536 SPF)
StreamSize/String : 340 MiB (1%)
Titul : Czech DD5.1 (Ac3)
Jazyk : Czech

Audio #3
Formát : AC-3
Format_Commercial_IfAny : Dolby Digital
CodecID : A_AC3
Duration/String : 1 h 46 min
Bit rate : 448 kb/s
Kanál(y) : 6 kanály
Sampling rate : 48,0 kHz
Frame rate : 31,250 FPS (1536 SPF)
StreamSize/String : 340 MiB (1%)
Titul : Eng DD5.1 (Ac3)
Jazyk : English

Text #1
ID : 5
Formát : PGS
MuxingMode : zlib
CodecID : S_HDMV/PGS
/ : Picture based subtitle format used on BDs/HD-DVDs
Duration/String : 1 h 39 min
Bit rate : 24,6 kb/s
ElementCount : 2006
StreamSize/String : 17,5 MiB (0%)
Titul : Czech PGS
Jazyk : Czech
Default : Ne
Forced : Ne

Text #2
ID : 6
Formát : PGS
MuxingMode : zlib
CodecID : S_HDMV/PGS
/ : Picture based subtitle format used on BDs/HD-DVDs
Duration/String : 1 h 40 min
Bit rate : 33,1 kb/s
ElementCount : 2378
StreamSize/String : 23,8 MiB (0%)
Titul : Eng PGS
Jazyk : English
Default : Ne
Forced : Ne

Text #3
ID : 7
Formát : PGS
MuxingMode : zlib
CodecID : S_HDMV/PGS
/ : Picture based subtitle format used on BDs/HD-DVDs
Duration/String : 1 h 43 min
Bit rate : 22,4 kb/s
ElementCount : 2004
StreamSize/String : 16,7 MiB (0%)
Titul : Fre PGS
Jazyk : French
Default : Ne
Forced : Ne

Text #4
ID : 8
Formát : PGS
MuxingMode : zlib
CodecID : S_HDMV/PGS
/ : Picture based subtitle format used on BDs/HD-DVDs
Duration/String : 1 h 39 min
Bit rate : 28,1 kb/s
ElementCount : 2006
StreamSize/String : 20,0 MiB (0%)
Titul : Ger PGS
Jazyk : German
Default : Ne
Forced : Ne

Menu
00:00:00.000 : en:(01)00:00:00:000
00:04:09.791 : en:(02)00:04:09:791
00:07:27.196 : en:(03)00:07:27:196
00:10:20.202 : en:(04)00:10:20:202
00:15:16.498 : en:(05)00:15:16:498
00:17:47.316 : en:(06)00:17:47:316
00:20:23.972 : en:(07)00:20:23:972
00:22:51.036 : en:(08)00:22:51:036
00:26:28.086 : en:(09)00:26:28:086
00:29:06.035 : en:(10)00:29:06:035
00:33:16.577 : en:(11)00:33:16:577
00:35:47.770 : en:(12)00:35:47:770
00:39:01.797 : en:(13)00:39:01:797
00:44:18.822 : en:(14)00:44:18:822
00:47:21.463 : en:(15)00:47:21:463
00:52:30.564 : en:(16)00:52:30:564
00:56:28.676 : en:(17)00:56:28:676
01:01:16.839 : en:(18)01:01:16:839
01:04:50.678 : en:(19)01:04:50:678
01:11:04.468 : en:(20)01:11:04:468
01:12:34.099 : en:(21)01:12:34:099
01:17:16.089 : en:(22)01:17:16:089
01:21:05.360 : en:(23)01:21:05:360
01:24:17.385 : en:(24)01:24:17:385
01:29:19.604 : en:(25)01:29:19:604
01:36:15.186 : en:(26)01:36:15:186
01:37:58.914 : en:(27)01:37:58:914
01:41:38.801 : en:(28)01:41:38:801
01:46:12.616 : en:(29)01:46:12:616


Obrázek

Archív Rar: Bez hesla , Bez Kompresii , 3% pre opravu Dát

<<

Sonty


Pokročilý


Užívateľ

ID Užívateľa: 22750

Registrován: 27 led 2016, 20:09



Příspěvky: 357
(Zobraziť: Všetko /Témy)

Poďakoval som: 0 krát

Poďakovali my: 0 krát



Peňazí na ruke: 4,237.45



Karma: 0

Příspěvek 07 dub 2021, 20:53

Quantum of Solace / James Bond: Quantum of Solace (2008)

Quantum of Solace (2008)

Video/Zdroj: BluRay 1080p
Audio: CZ AC-3 5.1ch, EN DTS-HD MA 5.1ch, EN DTS 5.1ch
Titulky: CZ, CZ forced, EN


Obrázek

CSFD / IMDB
  Kód:   Vybrat vše
https://www.csfd.cz/film/226775-quantum-of-solace/prehled/
https://www.imdb.com/title/tt0381061/?ref_=nv_sr_srsg_0


INFO
Spoiler:
Format : Matroska
Format version : Version 4 / Version 2
File size : 14.0 GiB
Duration : 1 h 46 min
Overall bit rate : 18.8 Mb/s

Video
Format : AVC
Format profile : High@L4.1
Duration : 1 h 46 min
Bit rate : 13.5 Mb/s
Width : 1 918 pixels
Height : 798 pixels
Display aspect ratio : 2.40:1
Frame rate mode : Constant
Frame rate : 23.976 (24000/1001) FPS
Color space : YUV
Chroma subsampling : 4:2:0
Bit depth : 8 bits
Scan type : Progressive
Bits/(Pixel*Frame) : 0.367
Stream size : 9.98 GiB (72%)

Audio #1
Format : DTS
Format profile : HRA / Core
Duration : 1 h 46 min
Bit rate mode : Constant
Bit rate : 3 018 kb/s / 1 509 kb/s
Channel(s) : 6 channels
Channel positions : Front: L C R, Side: L R, LFE
Sampling rate : 48.0 kHz
Frame rate : 93.750 FPS (512 SPF)
Bit depth : 24 bits
Compression mode : Lossy
Stream size : 2.24 GiB (16%)
Language : English
Default : Yes
Forced : No

Audio #2
Format : DTS
Duration : 1 h 46 min
Bit rate mode : Constant
Bit rate : 1 509 kb/s
Channel(s) : 6 channels
Channel positions : Front: L C R, Side: L R, LFE
Sampling rate : 48.0 kHz
Frame rate : 93.750 FPS (512 SPF)
Bit depth : 24 bits
Compression mode : Lossy
Stream size : 1.12 GiB (8%)
Language : English
Default : No
Forced : No

Audio #3
Format : AC-3
Duration : 1 h 46 min
Bit rate mode : Constant
Bit rate : 448 kb/s
Channel(s) : 6 channels
Channel positions : Front: L C R, Side: L R, LFE
Sampling rate : 48.0 kHz
Frame rate : 31.250 FPS (1536 SPF)
Bit depth : 16 bits
Compression mode : Lossy
Stream size : 340 MiB (2%)
Language : Czech
Default : No
Forced : No

Text #1
Format : PGS
Language : Czech
Default : Yes
Forced : No

Text #2
Format : PGS
Language : Czech
Default : No
Forced : No

Text #3
Format : PGS
Language : English
Default : No
Forced : No


FASTSHARE

  Kód:   Vybrat vše
https://fastshare.cz/16571220/bond-22-quantum-of-solace-2008-cz-en-1080p-bdrip.mkv


  Kód:   Vybrat vše
https://fastshare.cz/16571839/b22qos.part1.rar
https://fastshare.cz/16571828/b22qos.part2.rar
https://fastshare.cz/16571815/b22qos.part3.rar
https://fastshare.cz/16571796/b22qos.part4.rar
https://fastshare.cz/16571781/b22qos.part5.rar
https://fastshare.cz/16571765/b22qos.part6.rar
https://fastshare.cz/16571748/b22qos.part7.rar
https://fastshare.cz/16571736/b22qos.part8.rar


Balené bez kompresie. Bez hesla. Pridaný záznam pre opravu dát 5%.




Zpět na HD filmy cz/sk



Kdo je online

Uživatelé procházející toto fórum: Žádní registrovaní uživatelé a 0 návštevníků

Powered by phpBB © 2000, 2002, 2005, 2007 phpBB Group.
Designed by ST Software.
Installed phpBB version: 3.0.12
Český překlad – phpBB.cz
Karma functions powered by Karma MOD © 2007, 2009 m157y
phpBB SEO
Protected by Anti-Spam ACP
TOPlist