Loading...
Oznam

Forum je na prodej,v případě zájmu pište do Kontaktu



warpark-Forum


John Wick 3 / John Wick: Chapter 3 - Parabellum (2019)

Moderátor: drobec

<<

ponte753


Expert


Užívateľ

ID Užívateľa: 23695

Registrován: 12 říj 2018, 23:04



Příspěvky: 666
(Zobraziť: Všetko /Témy)

Poďakoval som: 0 krát

Poďakovali my: 2 krát



Peňazí na ruke: 8,658.50



Karma: 0

Příspěvek 29 zář 2019, 11:45

John Wick 3 / John Wick: Chapter 3 - Parabellum (2019)

Obrázek

John Wick 3 / John Wick: Chapter 3 - Parabellum (2019)

Akční / Krimi / Thriller

USA, 2019, 131 min


Režie: Chad Stahelski
Scénář: Derek Kolstad, Shay Hatten, Chris Collins, Marc Abrams
Kamera: Dan Laustsen
Hudba: Tyler Bates, Joel J. Richard
Hrají: Keanu Reeves, Halle Berry, Ian McShane, Laurence Fishburne, Mark Dacascos, Asia Kate Dillon, Lance Reddick, Tobias Segal, Anjelica Huston, Saïd Taghmaoui, Jerome Flynn, Randall Duk Kim, Robin Lord Taylor, Susan Blommaert, Jason Mantzoukas, Cecep Arif Rahman, Yayan Ruhian, Tiger Chen Hu, Faith Logan, Oscar Pavlo, Candace Smith, Bob… (více)
Producenti: Basil Iwanyk, Erica Lee
Střih: Evan Schiff
Scénografie: Kevin Kavanaugh
Kostýmy: Luca Mosca

  Kód:   Vybrat vše
https://www.imdb.com/title/tt6146586/

https://www.csfd.cz/film/564692-john-wick-3/


Jazyk: Czech DD2.0 (Ac3) , English DTS TrueHD.7.1.Atmos , DD5.1 , DD2.0 (Ac3)

Titulky: Czech Forced , FULL: Czech , Slovak , Eng , Fre , Spa

FULL.1080p.BluRay.AVC.RLS

Spoiler:
Formát : Matroska
Velikost souboru : 12,5 GiB
Duration/String : 2 h 10 min
Celkový BitRate : 13,7 Mb/s

Video
Formát : AVC
Format_Profile : High@L5.1
Format_Settings : CABAC / 16 Ref Frames
Format_Settings_RefFrames/String : 16 frame
CodecID : V_MPEG4/ISO/AVC
Duration/String : 2 h 10 min
Bit rate : 8 710 kb/s
Šířka : 1 920pixely
Výška : 1 080pixely
Frame rate : 23,976 (24000/1001) FPS

Audio #1
Formát : AC-3
Format_Commercial_IfAny : Dolby Digital
CodecID : A_AC3
Duration/String : 2 h 10 min
Bit rate : 224 kb/s
Kanál(y) : 2 kanály
Sampling rate : 48,0 kHz
Frame rate : 31,250 FPS (1536 SPF)
StreamSize/String : 210 MiB (2%)
Titul : Czech DD2.0 (Ac3)
Jazyk : Czech

Audio #2
Formát/ : Meridian Lossless Packing FBA with 16-channel presentation
Format_Commercial_IfAny : Dolby TrueHD with Dolby Atmos
CodecID : A_TRUEHD
Duration/String : 2 h 10 min
Bit rate : 4 012 kb/s
BitRate_Maximum/String : 5 415 kb/s
Kanál(y) : 8 kanály
ChannelLayout : L R C LFE Ls Rs Lb Rb
Sampling rate : 48,0 kHz
Frame rate : 1 200,000 FPS (40 SPF)
StreamSize/String : 3,66 GiB (29%)
Titul : Eng TrueHD.7.1.Atmos
Jazyk : English

Audio #3
Formát : AC-3
Format_Commercial_IfAny : Dolby Digital
CodecID : A_AC3
Duration/String : 2 h 10 min
Bit rate : 448 kb/s
Kanál(y) : 6 kanály
Sampling rate : 48,0 kHz
Frame rate : 31,250 FPS (1536 SPF)
StreamSize/String : 419 MiB (3%)
Titul : English DD5.1 (Ac3)
Jazyk : English

Audio #4
Formát : AC-3
Format_Commercial_IfAny : Dolby Digital
CodecID : A_AC3
Duration/String : 2 h 10 min
Bit rate : 224 kb/s
Kanál(y) : 2 kanály
Sampling rate : 48,0 kHz
Frame rate : 31,250 FPS (1536 SPF)
StreamSize/String : 210 MiB (2%)
Titul : Eng DD2.0 (Ac3)
Jazyk : English

Text #1

Formát : UTF-8
CodecID : S_TEXT/UTF8
Duration/String : 1 h 47 min
StreamSize/String : 934 Bytes (0%)
Titul : Czech Forced
Jazyk : Czech
Default : Ano
Forced : Ano

Text #2
Formát : UTF-8
CodecID : S_TEXT/UTF8
Duration/String : 2 h 2 min
StreamSize/String : 20,2 KiB (0%)
Titul : Czech FULL SRT
Jazyk : Czech
Default : Ne
Forced : Ne

Text #3
Formát : UTF-8
CodecID : S_TEXT/UTF8
Duration/String : 2 h 1 min
StreamSize/String : 20,7 KiB (0%)
Titul : Slovak FULL SRT
Jazyk : Slovak
Default : Ne
Forced : Ne

Text #4
Formát : UTF-8
CodecID : S_TEXT/UTF8
Duration/String : 1 h 59 min
StreamSize/String : 21,1 KiB (0%)
Titul : English-SRT
Jazyk : English
Default : Ne
Forced : Ne

Text #5
Formát : PGS
CodecID : S_HDMV/PGS
Duration/String : 1 h 59 min
StreamSize/String : 14,7 MiB (0%)
Titul : English-PGS
Jazyk : English
Default : Ne
Forced : Ne

Text #6
Formát : PGS
CodecID : S_HDMV/PGS
Duration/String : 2 h 0 min
StreamSize/String : 15,1 MiB (0%)
Titul : Spanish-PGS
Jazyk : Spanish
Default : Ne
Forced : Ne

Text #7
Formát : PGS
CodecID : S_HDMV/PGS
Duration/String : 1 h 59 min
StreamSize/String : 14,8 MiB (0%)
Titul : French-PGS
Jazyk : French
Default : Ne
Forced : Ne

Menu
00:00:00.000 : en:Chapter 01
00:08:46.859 : en:Chapter 02
00:14:06.762 : en:Chapter 03
00:22:40.400 : en:Chapter 04
00:31:26.301 : en:Chapter 05
00:37:51.310 : en:Chapter 06
00:47:43.318 : en:Chapter 07
00:57:09.175 : en:Chapter 08
01:02:56.439 : en:Chapter 09
01:14:27.671 : en:Chapter 10
01:20:36.665 : en:Chapter 11
01:28:48.364 : en:Chapter 12
01:33:51.792 : en:Chapter 13
01:41:31.794 : en:Chapter 14
01:53:44.651 : en:Chapter 15
01:59:51.434 : en:Chapter 16


Obrázek
  Kód:   Vybrat vše
http://www.fastshare.cz/12363082/jwch019john.wick.chapter.3.parabellum.2019.1080p.bluray.avc.dts-hd.ma.truehd.7.1.eng.cz.dabing.mkv
<<

Sonty


Pokročilý


Užívateľ

ID Užívateľa: 22750

Registrován: 27 led 2016, 20:09



Příspěvky: 357
(Zobraziť: Všetko /Témy)

Poďakoval som: 0 krát

Poďakovali my: 0 krát



Peňazí na ruke: 4,237.45



Karma: 0

Příspěvek 07 dub 2021, 21:31

John Wick 3 / John Wick: Chapter 3 - Parabellum (2019)

John Wick 3 / John Wick: Chapter 3 - Parabellum (2019)

Video/Zdroj: BluRay 2160p
Audio: CZ DTS 5.1ch, EN TrueHD+Atmos 7.1ch, EN DTS 7.1/5.1ch, EN E-AC-3 5.1ch, EN AC-3 5.1ch
Titulky: CZ, CZ forced, SK, EN


Obrázek

CSFD / IMDB
  Kód:   Vybrat vše
https://www.csfd.cz/film/564692-john-wick-3/prehled/
https://www.imdb.com/title/tt6146586/?ref_=fn_al_tt_1


INFO
Spoiler:
Format : Matroska
Format version : Version 4 / Version 2
File size : 68.9 GiB
Duration : 2h 10mn
Overall bit rate mode : Variable
Overall bit rate : 75.3 Mbps

Video
Format : HEVC
Format profile : Main 10@L5.1@High
Duration : 2h 10mn
Bit rate : 63.2 Mbps
Width : 3 840 pixels
Height : 2 160 pixels
Display aspect ratio : 16:9
Frame rate mode : Constant
Frame rate : 23.976 (24000/1001) fps
Color space : YUV
Chroma subsampling : 4:2:0 (Type 2)
Bit depth : 10 bits
Bits/(Pixel*Frame) : 0.318
Stream size : 57.7 GiB (84%)

Audio #1
Format : DTS
Duration : 2h 10mn
Bit rate mode : Constant
Bit rate : 1 509 Kbps
Channel(s) : 6 channels
Channel positions : Front: L C R, Side: L R, LFE
Sampling rate : 48.0 KHz
Frame rate : 93.750 fps (512 spf)
Bit depth : 24 bits
Compression mode : Lossy
Delay relative to video : -9ms
Stream size : 1.38 GiB (2%)
Language : Czech
Default : Yes
Forced : No

Audio #2
Format : Atmos / TrueHD
Duration : 2h 10mn
Bit rate mode : Variable
Bit rate : 4 012 Kbps
Maximum bit rate : 6 327 Kbps
Channel(s) : Object Based / 8 channels
Channel positions : Object Based / Front: L C R, Side: L R, Back: L R, LFE
Sampling rate : / 48.0 KHz
Frame rate : 1 200.000 fps (40 spf)
Compression mode : Lossless
Stream size : 3.66 GiB (5%)
Language : English
Default : No
Forced : No

Audio #3
Format : DTS
Duration : 2h 10mn
Bit rate mode : Variable / Constant
Bit rate : 4 439 Kbps / 1 509 Kbps
Channel(s) : 8 channels / 6 channels
Channel positions : Front: L C R, Side: L R, Back: L R, LFE / Front: L C R, Side: L R, LFE
Sampling rate : 48.0 KHz
Frame rate : 93.750 fps (512 spf)
Bit depth : 24 bits
Compression mode : Lossless / Lossy
Delay relative to video : -9ms
Stream size : 4.05 GiB (6%)
Language : English
Default : No
Forced : No

Audio #4
Format : E-AC-3
Duration : 2h 10mn
Bit rate mode : Constant
Bit rate : 1 536 Kbps
Channel(s) : 6 channels
Channel positions : Front: L C R, Side: L R, LFE
Sampling rate : 48.0 KHz
Frame rate : 187.500 fps (256 spf)
Compression mode : Lossy
Delay relative to video : -9ms
Stream size : 1.40 GiB (2%)
Language : English
Default : No
Forced : No

Audio #5
Format : AC-3
Duration : 2h 10mn
Bit rate mode : Constant
Bit rate : 640 Kbps
Channel(s) : 6 channels
Channel positions : Front: L C R, Side: L R, LFE
Sampling rate : 48.0 KHz
Frame rate : 31.250 fps (1536 spf)
Compression mode : Lossy
Delay relative to video : -9ms
Stream size : 599 MiB (1%)
Language : English
Default : No
Forced : No

Text #1
Format : UTF-8
Language : Czech
Default : Yes
Forced : Yes

Text #2
Format : UTF-8
Language : Czech
Default : No
Forced : No

Text #3
Format : UTF-8
Language : Slovak
Default : No
Forced : No

Text #4
Format : PGS
Language : English
Default : No
Forced : No

Text #5
Format : UTF-8
Language : English
Default : No
Forced : No


FASTSHARE
  Kód:   Vybrat vše
https://fastshare.cz/16570312/jw3p19uhd.part01.rar
https://fastshare.cz/16570291/jw3p19uhd.part02.rar
https://fastshare.cz/16570252/jw3p19uhd.part03.rar
https://fastshare.cz/16570206/jw3p19uhd.part04.rar
https://fastshare.cz/16570170/jw3p19uhd.part05.rar
https://fastshare.cz/16570133/jw3p19uhd.part06.rar
https://fastshare.cz/16570093/jw3p19uhd.part07.rar
https://fastshare.cz/16570047/jw3p19uhd.part08.rar
https://fastshare.cz/16570001/jw3p19uhd.part09.rar
https://fastshare.cz/16569941/jw3p19uhd.part10.rar
https://fastshare.cz/16569889/jw3p19uhd.part11.rar
https://fastshare.cz/16569852/jw3p19uhd.part12.rar
https://fastshare.cz/16569821/jw3p19uhd.part13.rar
https://fastshare.cz/16569799/jw3p19uhd.part14.rar
https://fastshare.cz/16569774/jw3p19uhd.part15.rar
https://fastshare.cz/16569346/jw3p19uhd.part16.rar
https://fastshare.cz/16569223/jw3p19uhd.part17.rar
https://fastshare.cz/16569032/jw3p19uhd.part18.rar
https://fastshare.cz/16568943/jw3p19uhd.part19.rar


Balené bez kompresie. Bez hesla. Pridaný záznam pre opravu dát 5%.




Zpět na HD filmy cz/sk



Kdo je online

Uživatelé procházející toto fórum: Žádní registrovaní uživatelé a 0 návštevníků

Powered by phpBB © 2000, 2002, 2005, 2007 phpBB Group.
Designed by ST Software.
Installed phpBB version: 3.0.12
Český překlad – phpBB.cz
Karma functions powered by Karma MOD © 2007, 2009 m157y
phpBB SEO
Protected by Anti-Spam ACP
TOPlist