Loading...
Oznam

Forum je na prodej,v případě zájmu pište do Kontaktu



warpark-Forum


Mrazík / Morozko (1964)

Moderátor: drobec

Pravidla fóra
- Všechny linky této kategorie musí být v CODE,obrázky , screeny v IMG
- Používejte tlačítko HLEDÁM, abyste nezaložili duplicitní téma
- Název témy musi obsahovat název filmu,pokud je s dabingem,první český název/originální název (rok výroby)


Bostonský případ / Boston Strangler, The (1968)

[b][i]- V příspěvku musi být uvedené info o uploadu,cover,kvalita příspěvku,dále odkaz na csfd
- NEZAKLÁDEJTE DUPLICITNÍ TÉMATA !!!
- V hesle od RARu je zakázané použít název nebo link jiného warez fora !
- Příspěvky dávejte do správných kategorií
- Prosby o reupload zasílejte autorovi příspěvku daného filmu formou soukromé zprávy
- Nefunkční linky a příspěvky v rozporu s pravidly hlaste Moderátorům pomocí tlačítka
" HLEDAT "
- Příspěvky,které nebudou podle pravidiel budou Moderátorem upravené ,přesunuté do smeti nebo vymazané
- Žádný SPAM !
<<

mirec732


User


Užívateľ

ID Užívateľa: 10353

Registrován: 17 kvě 2010, 12:11



Příspěvky: 23
(Zobraziť: Všetko /Témy)

Poďakoval som: 0 krát

Poďakovali my: 0 krát



Peňazí na ruke: 775.00



Karma: 0

Příspěvek 30 lis 2012, 22:44

Mrazík / Morozko (1964)

Obrázek
Mrazík / Morozko (1964)

  Kód:   Vybrat vše
http://www.csfd.cz/film/33582-mrazik/


Rodinný / Pohádka / Hudební

Sovětský svaz, 1964, 79 min
Režie:
Alexandr Rou
Hrají:
Alexandr Chvylja, Natalia Sedych, Eduard Izotov, Inna Čurikova, Georgij Milljar, Michail Janšin, Taťjana Peľtcer, Anastasia Zujeva, Taťjana Jukina, Lev Potěmkin, Olga Jukina, Anatolij Kubackij

Obsah

Legendární ruská pohádka o pracovité Nastěnce, statečném, ale samolibém Ivanovi a lásce, která si poradí se zlou macechou stejně jako s mrazivým kouzlem berly mrazilky.
Bylo nebylo, žil kdysi stařeček, který měl hodnou a pracovitou dceru Nastěnku, jenže si vzal za ženu zlou, která je oba týrala stejně jako její rozmazlená dcera Marfuša. A protože Marfuša příliš krásy nepobrala, o to víc macecha nenáviděla půvabnou Nastěnku, a přemýšlela jak se jí zbavit, až ji nakonec jedné kruté zimy do lesa vyhnala a doufala, že tam zmrzne nebo ji vlci sežerou. V lese naštěstí pečoval o zasněžené stromy kouzelný Mrazík, strážce zimního lesa, car metelice a bouře. A ten, protože byl spravedlivý, pomohl Nastěnce a postaral se oni. A ve stejný čas, ovšem na jiném místě zas, vydal se do světa pohledný silák Ivan. Loupežníky přemohl, s ježibabou si poradil, ale dědečka hříbečka urazil, takže se stal medvědem a musel konati dobré skutky, aby znovu získal zpět své lidskou tvář. Však to všechno dobře znáte, vždyť s touhle pohádkou se na televizních obrazovkách setkáváte rok co rok už více než třicet let.


Obrázek
Mrazik Morozko (1964).SK.avi (690 MB)
Audio: 2 channels | MP3 56.0 Kbps Constant
Video: 704×512px – 1.375 | DivX 5 (AVI) | 1 157 Kbps | 25.000 fps
Slovak dabing
  Kód:   Vybrat vše
http://ul.to/31sqxhx4

http://turbobit.net/bzgdbg0ms1o1.html

Mrazik Morozko (1964).CZ.avi (701 MB)
Audio: 2 channels | MP3 112 Kbps Variable
Video: 544×400px – 4 | XviD (AVI) | 1 115 Kbps | 25.000 fps
Czech dabing
  Kód:   Vybrat vše
http://ul.to/m06fe0b8

http://turbobit.net/figsciq4ae2k.html
Naposledy upravil Stanley dne 04 úno 2013, 12:04, celkově upraveno 2
Důvod: Smazány mrtvé linky
<<

Sonty


Pokročilý


Užívateľ

ID Užívateľa: 22750

Registrován: 27 led 2016, 20:09



Příspěvky: 394
(Zobraziť: Všetko /Témy)

Poďakoval som: 0 krát

Poďakovali my: 0 krát



Peňazí na ruke: 4,658.85



Karma: 0

Příspěvek 30 zář 2021, 15:16

Mrazík / Morozko (1964)

Mrázik / Морозко (1964)

Video/Zdroj: DVDRip
Audio: SK AC-3 5.1ch


Obrázek

CSFD / IMDB
  Kód:   Vybrat vše
https://www.csfd.cz/film/33582-mrazik/prehled/
https://www.imdb.com/title/tt0058374/?ref_=nv_sr_1?ref_=nv_sr_1


INFO
Spoiler:
Format : Matroska
Format version : Version 4 / Version 2
File size : 4.63 GiB
Duration : 1h 18mn
Overall bit rate : 8 415 Kbps

Video
Format : MPEG Video
Codec ID/Info : MPEG 1 or 2 Video
Duration : 1h 18mn
Bit rate : 8 000 Kbps
Width : 720 pixels
Height : 576 pixels
Display aspect ratio : 4:3
Frame rate mode : Constant
Frame rate : 25.000 fps
Standard : PAL
Color space : YUV
Chroma subsampling : 4:2:0
Bit depth : 8 bits
Scan type : Interlaced
Scan order : Top Field First
Compression mode : Lossy
Bits/(Pixel*Frame) : 0.772
Time code of first frame : 00:00:59:24
Time code source : Group of pictures header
GOP, Open/Closed : Open
GOP, Open/Closed of first f : Closed
Stream size : 4.38 GiB (95%)

Audio
Format : AC-3
Duration : 1h 18mn
Bit rate mode : Constant
Bit rate : 448 Kbps
Channel(s) : 6 channels
Channel positions : Front: L C R, Side: L R, LFE
Sampling rate : 48.0 KHz
Frame rate : 31.250 fps (1536 spf)
Compression mode : Lossy
Stream size : 253 MiB (5%)
Default : Yes
Forced : No


FASTSHARE

  Kód:   Vybrat vše
https://fastshare.cz/18058876/mrazik-1964-sk.mkv




Zpět na Avi s cz/sk dabingem



Kdo je online

Uživatelé procházející toto fórum: Žádní registrovaní uživatelé a 0 návštevníků

Powered by phpBB © 2000, 2002, 2005, 2007 phpBB Group.
Designed by ST Software.
Installed phpBB version: 3.0.12
Český překlad – phpBB.cz
Karma functions powered by Karma MOD © 2007, 2009 m157y
phpBB SEO
Protected by Anti-Spam ACP
TOPlist