Příspěvek 05 říj 2021, 13:37

Den D / D-Day 6.6.1944 (2004)

Den D / D-Day 6.6.1944 (2004)

Video/Zdroj: DVDRip
Audio: CZ AC-3 2ch


Obrázek

CSFD / IMDB
  Kód:   Vybrat vše
https://www.csfd.cz/film/168383-den-d/prehled/
https://www.imdb.com/title/tt0412617/?ref_=fn_al_tt_1


INFO
Spoiler:
Format : AVI
Format settings : rec
File size : 1.33 GiB
Duration : 1 h 42 min
Overall bit rate : 1 846 kb/s

Video
Format : MPEG-4 Visual
Format settings, Matrix : Default (H.263)
Codec ID : DIVX
Codec ID/Hint : DivX 4
Duration : 1 h 42 min
Bit rate : 1 646 kb/s
Width : 480 pixels
Height : 368 pixels
Display aspect ratio : 4:3
Frame rate : 25.000 FPS
Color space : YUV
Chroma subsampling : 4:2:0
Bit depth : 8 bits
Scan type : Progressive
Compression mode : Lossy
Bits/(Pixel*Frame) : 0.373
Stream size : 1.18 GiB (89%)

Audio
Format : AC-3
Duration : 1 h 42 min
Bit rate mode : Constant
Bit rate : 192 kb/s
Channel(s) : 2 channels
Channel positions : Front: L R
Sampling rate : 48.0 kHz
Frame rate : 31.250 FPS (1536 SPF)
Bit depth : 16 bits
Compression mode : Lossy
Stream size : 141 MiB (10%)
Alignment : Aligned on interleaves
Interleave, duration : 64 ms (1.60 video frames)
Interleave, preload duratio : 512 ms
Service kind : Complete Main


FASTSHARE
  Kód:   Vybrat vše
https://fastshare.cz/12233159/d-day-6.6.1944-2004-cz.avi