Příspěvek 05 říj 2021, 14:05

Diktátor / Great Dictator, The (1940)

Diktátor / Great Dictator, The (1940)

Video/Zdroj: DVDRip
Audio: EN MP3 2ch
Titulky: CZ v obraze


Obrázek

CSFD / IMDB
  Kód:   Vybrat vše
https://www.csfd.cz/film/1472-diktator/prehled/
https://www.imdb.com/title/tt0032553/?ref_=nv_sr_2?ref_=nv_sr_2


INFO
Spoiler:
Format : AVI
File size : 1.23 GiB
Duration : 2 h 3 min
Overall bit rate : 1 432 kb/s

Video
Format : MPEG-4 Visual
Codec ID/Hint : XviD
Duration : 2 h 3 min
Bit rate : 1 301 kb/s
Width : 720 pixels
Height : 544 pixels
Display aspect ratio : 4:3
Frame rate : 25.000 FPS
Color space : YUV
Chroma subsampling : 4:2:0
Bit depth : 8 bits
Scan type : Progressive
Compression mode : Lossy
Bits/(Pixel*Frame) : 0.133
Stream size : 1.12 GiB (91%)

Audio
Format : MPEG Audio
Codec ID/Hint : MP3
Duration : 1 h 59 min
Bit rate mode : Constant
Bit rate : 128 kb/s
Channel(s) : 2 channels
Sampling rate : 48.0 kHz
Compression mode : Lossy
Delay relative to video : 216 ms
Stream size : 110 MiB (9%)
Alignment : Aligned on interleaves
Interleave, duration : 82 ms (2.06 video frames)
Interleave, preload duratio : 504 ms
Language : English


FASTSHARE

  Kód:   Vybrat vše
https://fastshare.cz/12148609/great-dictator-diktator-1940-dvdrip-en-cz-tit.avi