Příspěvek 05 říj 2021, 14:52

Nevera po slovensky (1980)

Nevera po slovensky (1980)

Video/Zdroj: DVDRip
Audio: SK AC-3 2ch


Obrázek

CSFD / IMDB
  Kód:   Vybrat vše
https://www.csfd.cz/film/4724-nevera-po-slovensky/prehled/
https://www.imdb.com/title/tt0170987/?ref_=nv_sr_1?ref_=nv_sr_1


INFO
Spoiler:
Format : AVI
File size : 551 MiB
Duration : 1 h 7 min
Overall bit rate : 1 136 kb/s

Video
Format : MPEG-4 Visual
Format settings, Matrix : Default (H.263)
Codec ID/Hint : DivX 5
Duration : 1 h 7 min
Bit rate : 900 kb/s
Nominal bit rate : 4 854 kb/s
Width : 696 pixels
Height : 512 pixels
Display aspect ratio : 4:3
Frame rate : 25.000 FPS
Color space : YUV
Chroma subsampling : 4:2:0
Bit depth : 8 bits
Scan type : Progressive
Compression mode : Lossy
Bits/(Pixel*Frame) : 0.101
Stream size : 437 MiB (79%)

Audio
Format : AC-3
Duration : 1 h 7 min
Bit rate mode : Constant
Bit rate : 224 kb/s
Channel(s) : 2 channels
Channel positions : Front: L R
Sampling rate : 48.0 kHz
Frame rate : 31.250 FPS (1536 SPF)
Bit depth : 16 bits
Compression mode : Lossy
Stream size : 109 MiB (20%)
Alignment : Aligned on interleaves
Interleave, duration : 32 ms (0.80 video frame)
Service kind : Complete Main


FASTSHARE

  Kód:   Vybrat vše
https://fastshare.cz/12148584/nevera-po-slovensky-1.avi
https://fastshare.cz/12148585/nevera-po-slovensky-2.avi
https://fastshare.cz/12148615/nevera-po-slovensky-3.avi