Příspěvek 10 říj 2021, 13:41

Reminiscence / Spomienka (2021)

Reminiscence (2021) FHD

Release : Re_mini_scence.2021 cz dab.h.mkv

Obrázek

Obrázek

  Kód:   Vybrat vše
https://www.csfd.cz/film/819266-reminiscence/prehled/


Obrázek
  Kód:   Vybrat vše
Celý názov a cesta                       : Re_mini_scence.2021 cz dab.h.mkv
Formát                                   : Matroska
Format version                           : Version 4
Veľkosť súboru                           : 6,97 GiB
Trvanie                                  : 1 h 55 min
Overall bit rate mode                    : Variabilný dátový tok
Celkový dátový tok                       : 8 605 kb/s
Dátum zakódovania                        : UTC 2021-09-28 14:04:21
Použitý software                         : mkvmerge v59.0.0 ('Shining Star') 64-bit
Zakódoval                                : libebml v1.4.2 + libmatroska v1.6.4

Video
ID                                       : 1
Formát                                   : AVC
Formát/Info                              : Advanced Video Codec
Profil formátu                           : High@L4
Nastavenia formátu                       : CABAC / 4 Ref Frames
Format settings, CABAC                   : Áno
Format settings, Reference frames        : 4snímky
Označenie kodeku                         : V_MPEG4/ISO/AVC
Trvanie                                  : 1 h 55 min
Režim dátového toku                      : Variabilný dátový tok
Dátový tok                               : 8 250 kb/s
Maximálny dátový tok                     : 12,4 Mb/s
Šírka                                    : 1 920 pixelov
Výška                                    : 816 pixelov
Pomer strán                              : 2,35:1
Režim frekvencie snímok                  : Konštantný
Frekvencia snímok                        : 23,976 (24000/1001) snímok/sek.
Color space                              : YUV
Chroma subsampling                       : 4:2:0
Bit depth                                : 8 bitov
Scan type                                : Progresívne
Bitov/(Bod*Snímka)                       : 0.220
Stream size                              : 6,66 GiB (96%)
Zakódoval                                : x264 core 157 r2965 861cec4
Nastavenie kodéru                        : cabac=1 / ref=4 / deblock=1:0:0 / analyse=0x3:0x113 / me=hex / subme=7 / psy=1 / psy_rd=1.00:0.00 / mixed_ref=1 / me_range=16 / chroma_me=1 / trellis=1 / 8x8dct=1 / cqm=0 / deadzone=21,11 / fast_pskip=1 / chroma_qp_offset=-2 / threads=25 / lookahead_threads=4 / sliced_threads=0 / nr=0 / decimate=1 / interlaced=0 / bluray_compat=0 / constrained_intra=0 / bframes=3 / b_pyramid=2 / b_adapt=1 / b_bias=0 / direct=1 / weightb=1 / open_gop=0 / weightp=2 / keyint=96 / keyint_min=96 / scenecut=40 / intra_refresh=0 / rc_lookahead=40 / rc=2pass / mbtree=1 / bitrate=8250 / ratetol=1.0 / qcomp=0.60 / qpmin=0 / qpmax=69 / qpstep=4 / cplxblur=20.0 / qblur=0.5 / vbv_maxrate=12375 / vbv_bufsize=6187 / nal_hrd=vbr / filler=0 / ip_ratio=1.40 / aq=1:1.00
Default                                  : Áno
Forced                                   : Nie
Color range                              : Limited
Color primaries                          : BT.709
Transfer characteristics                 : BT.709
Matrix coefficients                      : BT.709

Audio
ID                                       : 2
Formát                                   : E-AC-3
Formát/Info                              : Enhanced AC-3
Commercial name                          : Dolby Digital Plus
Označenie kodeku                         : A_EAC3
Trvanie                                  : 1 h 55 min
Režim dátového toku                      : Konštantný dátový tok
Dátový tok                               : 384 kb/s
Kanál(y)                                 : 6 kanálov
Channel layout                           : L R C LFE Ls Rs
Sampling rate                            : 48,0 kHz
Frekvencia snímok                        : 31,250 snímok/sek. (1536 SPF)
Compression mode                         : Lossy
Video delay                              : 700 ms
Stream size                              : 318 MiB (4%)
Jazyk                                    : Česky
Service kind                             : Complete Main
Default                                  : Áno
Forced                                   : Áno

Text #1
ID                                       : 3
Formát                                   : UTF-8
Označenie kodeku                         : S_TEXT/UTF8
Označenie kodeku/Info                    : UTF-8 Plain Text
Trvanie                                  : 1 h 34 min
Dátový tok                               : 1 b/s
Count of elements                        : 33
Stream size                              : 731 Bytov (0%)
Jazyk                                    : Česky
Default                                  : Áno
Forced                                   : Áno

Text #2
ID                                       : 4
Formát                                   : UTF-8
Označenie kodeku                         : S_TEXT/UTF8
Označenie kodeku/Info                    : UTF-8 Plain Text
Trvanie                                  : 1 h 53 min
Dátový tok                               : 50 b/s
Count of elements                        : 1462
Stream size                              : 41,8 kiB (0%)
Jazyk                                    : Česky
Default                                  : Nie
Forced                                   : Nie


Obrázek

  Kód:   Vybrat vše
https://ulozto.sk/file/SFglqDT4c30F/re-mini-scence-2021-cz-dab-h-mkv#!ZGywZmR2AGHmLGDjLmWuAwN4AJL1AHLjZ2ZgoSqYqJIULmx2BD==


Obrázek