Příspěvek 22 srp 2019, 21:01

Pot a krev / Pain & Gain (2013)

Pot a krev / Pain & Gain (2013)

Video/Zdroj: BluRay 1080p
Audio: CZ AC-3 5.1ch, EN AC-3 5.1ch
Titulky: CZ


Obrázek

CSFD / IMDB
  Kód:   Vybrat vše
http://www.csfd.cz/film/311871-pot-a-krev/
https://www.imdb.com/title/tt1980209/?ref_=nv_sr_1


INFO
Format : Matroska
Format version : Version 2
File size : 9.15 GiB
Duration : 2h 9mn
Overall bit rate : 10.1 Mbps

Video
Format : AVC
Format profile : High@L4.1
Duration : 2h 9mn
Bit rate : 9 018 Kbps
Width : 1 920 pixels
Height : 800 pixels
Display aspect ratio : 2.40:1
Frame rate mode : Constant
Frame rate : 23.976 fps
Color space : YUV
Chroma subsampling : 4:2:0
Bit depth : 8 bits
Scan type : Progressive
Bits/(Pixel*Frame) : 0.245
Stream size : 7.98 GiB (87%)

Audio #1
Format : AC-3
Duration : 2h 9mn
Bit rate mode : Constant
Bit rate : 448 Kbps
Channel(s) : 6 channels
Channel positions : Front: L C R, Side: L R, LFE
Sampling rate : 48.0 KHz
Bit depth : 16 bits
Compression mode : Lossy
Stream size : 415 MiB (4%)
Language : Czech

Audio #2
Format : AC-3
Duration : 2h 9mn
Bit rate mode : Constant
Bit rate : 640 Kbps
Channel(s) : 6 channels
Channel positions : Front: L C R, Side: L R, LFE
Sampling rate : 48.0 KHz
Bit depth : 16 bits
Compression mode : Lossy
Stream size : 593 MiB (6%)
Language : English

Text #1
Format : UTF-8
Language : Czech

Text #2
Format : UTF-8
Language : English

Text #3
Format : UTF-8
Language : English


FASTSHARE
  Kód:   Vybrat vše
http://fastshare.cz/12148484/paghd.part1.rar
http://fastshare.cz/12148485/paghd.part2.rar
http://fastshare.cz/12148488/paghd.part3.rar
http://fastshare.cz/12148489/paghd.part4.rar
http://fastshare.cz/12148490/paghd.part5.rar


Balené bez kompresie. Bez hesla. Pridaný záznam pre opravu dát 5%.