Příspěvek 24 pro 2017, 16:17

Prázdniny / The Holiday (2006)

Prázdniny_The Holiday (2006)(SK.CZ.EN)[1080pHD]






Cover:

Obrázek

Info:

Jazyk: Cze / Svk / Eng


Csfd:

  Kód:   Vybrat vše
https://www.csfd.cz/film/222523-prazdniny/prehled/



Info:
Format: Matroska
Format version: Version 2
File size: 10.5 GiB
Duration: 2h 15mn
Overall bit rate: 11.1 Mbps
Encoded date: UTC 2010-07-05 14:49:29
Writing application: mkvmerge v3.2.0 ('Beginnings';) built on Feb 12 2010 16:46:17
Writing library: libebml v0.7.9 + libmatroska v0.8.1

Video
ID: 1
Format: AVC
Format/Info: Advanced Video Codec
Format profile: High@L4.1
Format settings, CABAC: Yes
Format settings, ReFrames: 4 frames
Codec ID: V_MPEG4/ISO/AVC
Duration: 2h 15mn
Bit rate: 10 070 Kbps
Width: 1 920 pixels
Height: 1 040 pixels
Display aspect ratio: 1.85:1
Frame rate mode: Constant
Frame rate: 23.976 (24000/1001) fps
Color space: YUV
Chroma subsampling: 4:2:0
Bit depth: 8 bits
Scan type: Progressive
Bits/(Pixel*Frame): 0.209
Stream size: 9.27 GiB (88%)
Title: Holiday.2006.1080p.BluRay.x264-DNL
Writing library: x264 core 89 r1462kMod 7fcffde
Encoding settings: cabac=1 / ref=4 / deblock=1:-3:-3 / analyse=0x3:0x113 / me=umh / subme=10 / psy=1 / psy_rd=0.90:0.00 / mixed_ref=1 / me_range=24 / chroma_me=1 / trellis=2 / 8x8dct=1 / cqm=0 / deadzone=21,11 / fast_pskip=0 / chroma_qp_offset=-2 / threads=6 / sliced_threads=0 / nr=0 / decimate=0 / interlaced=0 / constrained_intra=0 / bframes=5 / b_pyramid=2 / b_adapt=2 / b_bias=0 / direct=3 / wpredb=1 / wpredp=2 / keyint=250 / keyint_min=25 / scenecut=40 / intra_refresh=0 / rc_lookahead=0 / rc=2pass / mbtree=0 / bitrate=10000 / ratetol=1.0 / qcomp=0.60 / qpmin=10 / qpmax=51 / qpstep=4 / cplxblur=20.0 / qblur=0.5 / vbv_maxrate=40000 / vbv_bufsize=62500 / ip_ratio=1.40 / pb_ratio=1.30 / aq=2:1.30 / pulldown=0 / nal_hrd=none
Language: English
Default: Yes
Forced: No

Audio #1
ID: 2
Format: AC-3
Format/Info: Audio Coding 3
Mode extension: CM (complete main)
Format settings, Endianness: Big
Codec ID: A_AC3
Duration: 2h 15mn
Bit rate mode: Constant
Bit rate: 448 Kbps
Channel(s): 6 channels
Channel positions: Front: L C R, Side: L R, LFE
Sampling rate: 48.0 KHz
Frame rate: 31.250 fps (1536 spf)
Compression mode: Lossy
Delay relative to video: 935ms
Stream size: 435 MiB (4%)
Title: AC3 5.1 448 kb/s
Language: Czech
Default: Yes
Forced: No

Audio #2
ID: 3
Format: AC-3
Format/Info: Audio Coding 3
Mode extension: CM (complete main)
Format settings, Endianness: Big
Codec ID: A_AC3
Duration: 2h 15mn
Bit rate mode: Constant
Bit rate: 640 Kbps
Channel(s): 6 channels
Channel positions: Front: L C R, Side: L R, LFE
Sampling rate: 48.0 KHz
Frame rate: 31.250 fps (1536 spf)
Compression mode: Lossy
Stream size: 622 MiB (6%)
Title: AC3 5.1 640 kb/s
Language: English
Default: No
Forced: No

Text
ID: 4
Format: UTF-8
Codec ID: S_TEXT/UTF8
Codec ID/Info: UTF-8 Plain Text
Title: SRT-DVD
Language: Czech
Default: No
Forced: No



Download:
  Kód:   Vybrat vše
http://fastshare.cz/8388786/prazdniny-the-holiday-2006-sk.cz.en-1080phd-.mkv


Naposledy upravil Stanley dne 24 pro 2017, 19:19, celkově upraveno 1
Důvod: Oprava názvu tématu