Příspěvek 18 říj 2018, 13:14

Přísně tajné! / Top Secret! (1984)

Přísně tajné (1984)

Obrázek

info

  Kód:   Vybrat vše
https://www.csfd.cz/film/8-prisne-tajne/prehled/


Snímek Přísně tajné staví americkou rockovou hvězdu Nicka Riverse (Val Kilmer) proti obávanému východoněmeckému vrchnímu velitelství. Je to závod s časem, když se Nick spojí s Hillary Flammondovou (Lucy Gutteridge), aby našli jejího otce ještě předtím, než vyrobí super zbraň - Polaris Mine. Všechny myslitelné vtipy se kupí na jedné hromadě, která zahrnuje takové věci jako podvodní salón se stylovou westernovou bitkou, setkání s Deja Vu, velitelem francouzského odboje a krávy v holinách.(oficiální text distributora)


kvalita

General
Complete name : E:\Prisne.tajne.1984.DVDRip.XviD.CZ-SAGiTTARiO.avi
Format : AVI
Format/Info : Audio Video Interleave
File size : 700 MiB
Duration : 1h 26mn
Overall bit rate mode : Variable
Overall bit rate : 1 132 Kbps
Writing application : VirtualDubMod 1.5.4.1 (build 2178/release)
Writing library : VirtualDubMod build 2178/release

Video
ID : 0
Format : MPEG-4 Visual
Format profile : Advanced Simple@L5
Format settings, BVOP : 1
Format settings, QPel : No
Format settings, GMC : No warppoints
Format settings, Matrix : Custom
Codec ID : XVID
Codec ID/Hint : XviD
Duration : 1h 26mn
Bit rate : 1 015 Kbps
Width : 608 pixels
Height : 352 pixels
Display aspect ratio : 1.727
Frame rate : 25.000 fps
Color space : YUV
Chroma subsampling : 4:2:0
Bit depth : 8 bits
Scan type : Progressive
Compression mode : Lossy
Bits/(Pixel*Frame) : 0.190
Stream size : 628 MiB (90%)
Writing library : XviD 1.2.1 (UTC 2008-12-04)

Audio
ID : 1
Format : MPEG Audio
Format version : Version 1
Format profile : Layer 3
Mode : Joint stereo
Mode extension : MS Stereo
Codec ID : 55
Codec ID/Hint : MP3
Duration : 1h 26mn
Bit rate mode : Variable
Bit rate : 104 Kbps
Nominal bit rate : 128 Kbps
Channel(s) : 2 channels
Sampling rate : 48.0 KHz
Compression mode : Lossy
Stream size : 64.3 MiB (9%)
Alignment : Aligned on interleaves
Interleave, duration : 24 ms (0.60 video frame)
Interleave, preload duratio : 601 ms
Writing library : LAME3.97
Encoding settings : -m j -V 4 -q 2 -lowpass 17 --abr 128
Language : Czech


download

  Kód:   Vybrat vše
https://uloz.to/!B2ytvJj6/prisne-tajne-1984-rar